<svg xmlns="http://www.w3.org/2000/svg">
<defs>
<font id="UnifontExMono" horiz-adv-x="1024" vert-adv-y="1024" >
  <font-face 
    font-family="2310031517-UnifontExMono"
    font-weight="500"
    font-style="italic"
    font-stretch="normal"
    units-per-em="1024"
    panose-1="2 6 6 9 9 4 6 8 10 3"
    ascent="896"
    descent="-128"
    x-height="512"
    cap-height="640"
    bbox="-1024 -128 1024 896"
    underline-thickness="40"
    underline-position="-100"
    unicode-range="U+0001-E01EF"
  />
<missing-glyph horiz-adv-x="512" 
d="M448 640v64h-384v-64h384zM448 576v64h-128v-64h128zM192 576v64h-128v-64h128zM448 512v64h-64v-64h64zM320 512v64h-128v-64h128zM128 512v64h-64v-64h64zM448 448v64h-64v-64h64zM320 448v64h-128v-64h128zM128 448v64h-64v-64h64zM448 384v64h-64v-64h64zM320 384v64
h-256v-64h256zM448 320v64h-128v-64h128zM256 320v64h-192v-64h192zM448 256v64h-128v-64h128zM256 256v64h-192v-64h192zM448 192v64h-384v-64h384zM448 128v64h-128v-64h128zM256 128v64h-192v-64h192zM448 64v64h-128v-64h128zM256 64v64h-192v-64h192zM448 0v64h-384
v-64h384z" />
    <glyph glyph-name="uniFB50" unicode="&#x671;" horiz-adv-x="512" arabic-form="isolated" 
d="M256 640v-448h64v448h-64zM192 704h-64v-64h64v64zM192 704h256v128h-64v-64h-64v64h-64v-64h-64v-64zM320 832h64v64h-64v-64z" />
    <glyph glyph-name="uniFB51" unicode="&#x671;" horiz-adv-x="512" arabic-form="final" 
d="M512 192v64h-320v-64h320zM192 256v384h-64v-384h64zM64 704h-64v-64h64v64zM64 704h256v128h-64v-64h-64v64h-64v-64h-64v-64zM192 832h64v64h-64v-64z" />
    <glyph glyph-name="uniFB52" unicode="&#x67b;" horiz-adv-x="512" arabic-form="isolated" 
d="M320 -64v64h-64v-64h64zM320 64v64h-64v-64h64zM192 320v64h-64v-64h-64v-64h64v-64h256v64h-256v64h64zM384 256h64v128h-64v-128zM384 384v64h-64v-64h64z" />
    <glyph glyph-name="uniFB53" unicode="&#x67b;" horiz-adv-x="512" arabic-form="final" 
d="M320 -64v64h-64v-64h64zM320 64v64h-64v-64h64zM512 192v64h-64v128h-64v-128h-256v-64h384zM192 320v64h-64v-64h-64v-64h64v64h64zM384 384v64h-64v-64h64z" />
    <glyph glyph-name="uniFB54" unicode="&#x67b;" horiz-adv-x="512" arabic-form="initial" 
d="M320 -64v64h-64v-64h64zM320 64v64h-64v-64h64zM320 256h-320v-64h320v64zM320 256h64v128h-64v-128zM320 384v64h-64v-64h64z" />
    <glyph glyph-name="uniFB55" unicode="&#x67b;" horiz-adv-x="512" arabic-form="medial" 
d="M320 -64v64h-64v-64h64zM320 64v64h-64v-64h64zM512 192v64h-128v128h-64v-128h-320v-64h512zM320 384v64h-64v-64h64z" />
    <glyph glyph-name="uniFB56" unicode="&#x67e;" horiz-adv-x="512" arabic-form="isolated" 
d="M320 -64v64h-64v-64h64zM256 64v64h-64v-64h64zM384 64v64h-64v-64h64zM192 320v64h-64v-64h-64v-64h64v-64h256v64h-256v64h64zM384 256h64v128h-64v-128zM384 384v64h-64v-64h64z" />
    <glyph glyph-name="uniFB57" unicode="&#x67e;" horiz-adv-x="512" arabic-form="final" 
d="M320 -64v64h-64v-64h64zM256 64v64h-64v-64h64zM384 64v64h-64v-64h64zM512 192v64h-64v128h-64v-128h-256v-64h384zM192 320v64h-64v-64h-64v-64h64v64h64zM384 384v64h-64v-64h64z" />
    <glyph glyph-name="uniFB58" unicode="&#x67e;" horiz-adv-x="512" arabic-form="initial" 
d="M320 -64v64h-64v-64h64zM256 64v64h-64v-64h64zM384 64v64h-64v-64h64zM320 256h-320v-64h320v64zM320 256h64v128h-64v-128zM320 384v64h-64v-64h64z" />
    <glyph glyph-name="uniFB59" unicode="&#x67e;" horiz-adv-x="512" arabic-form="medial" 
d="M320 -64v64h-64v-64h64zM256 64v64h-64v-64h64zM384 64v64h-64v-64h64zM512 192v64h-128v128h-64v-128h-320v-64h512zM320 384v64h-64v-64h64z" />
    <glyph glyph-name="uniFB5A" unicode="&#x680;" horiz-adv-x="512" arabic-form="isolated" 
d="M256 -64v64h-64v-64h64zM384 -64v64h-64v-64h64zM256 64v64h-64v-64h64zM384 64v64h-64v-64h64zM192 320v64h-64v-64h-64v-64h64v-64h256v64h-256v64h64zM384 256h64v128h-64v-128zM384 384v64h-64v-64h64z" />
    <glyph glyph-name="uniFB5B" unicode="&#x680;" horiz-adv-x="512" arabic-form="final" 
d="M256 -64v64h-64v-64h64zM384 -64v64h-64v-64h64zM256 64v64h-64v-64h64zM384 64v64h-64v-64h64zM512 192v64h-64v128h-64v-128h-256v-64h384zM192 320v64h-64v-64h-64v-64h64v64h64zM384 384v64h-64v-64h64z" />
    <glyph glyph-name="uniFB5C" unicode="&#x680;" horiz-adv-x="512" arabic-form="initial" 
d="M256 -64v64h-64v-64h64zM384 -64v64h-64v-64h64zM256 64v64h-64v-64h64zM384 64v64h-64v-64h64zM320 256h-320v-64h320v64zM320 256h64v128h-64v-128zM320 384v64h-64v-64h64z" />
    <glyph glyph-name="uniFB5D" unicode="&#x680;" horiz-adv-x="512" arabic-form="medial" 
d="M256 -64v64h-64v-64h64zM384 -64v64h-64v-64h64zM256 64v64h-64v-64h64zM384 64v64h-64v-64h64zM512 192v64h-128v128h-64v-128h-320v-64h512zM320 384v64h-64v-64h64z" />
    <glyph glyph-name="uniFB5E" unicode="&#x67a;" horiz-adv-x="512" arabic-form="isolated" 
d="M192 320v64h-64v-64h-64v-64h64v-64h256v64h-256v64h64zM320 576v64h-64v-64h64zM320 704v64h-64v-64h64zM384 256h64v128h-64v-128zM384 384v64h-64v-64h64z" />
    <glyph glyph-name="uniFB5F" unicode="&#x67a;" horiz-adv-x="512" arabic-form="final" 
d="M512 192v64h-64v128h-64v-128h-256v-64h384zM192 320v64h-64v-64h-64v-64h64v64h64zM320 576v64h-64v-64h64zM320 704v64h-64v-64h64zM384 384v64h-64v-64h64z" />
    <glyph glyph-name="uniFB60" unicode="&#x67a;" horiz-adv-x="512" arabic-form="initial" 
d="M320 576v64h-64v-64h64zM320 704v64h-64v-64h64zM320 256h-320v-64h320v64zM320 256h64v128h-64v-128zM320 384v64h-64v-64h64z" />
    <glyph glyph-name="uniFB61" unicode="&#x67a;" horiz-adv-x="512" arabic-form="medial" 
d="M512 192v64h-128v128h-64v-128h-320v-64h512zM320 576v64h-64v-64h64zM320 704v64h-64v-64h64zM320 384v64h-64v-64h64z" />
    <glyph glyph-name="uniFB62" unicode="&#x67f;" horiz-adv-x="512" arabic-form="isolated" 
d="M192 320v64h-64v-64h-64v-64h64v-64h256v64h-256v64h64zM256 576v64h-64v-64h64zM384 576v64h-64v-64h64zM256 704v64h-64v-64h64zM384 704v64h-64v-64h64zM384 256h64v128h-64v-128zM384 384v64h-64v-64h64z" />
    <glyph glyph-name="uniFB63" unicode="&#x67f;" horiz-adv-x="512" arabic-form="final" 
d="M512 192v64h-64v128h-64v-128h-256v-64h384zM192 320v64h-64v-64h-64v-64h64v64h64zM256 576v64h-64v-64h64zM384 576v64h-64v-64h64zM256 704v64h-64v-64h64zM384 704v64h-64v-64h64zM384 384v64h-64v-64h64z" />
    <glyph glyph-name="uniFB64" unicode="&#x67f;" horiz-adv-x="512" arabic-form="initial" 
d="M256 576v64h-64v-64h64zM384 576v64h-64v-64h64zM256 704v64h-64v-64h64zM384 704v64h-64v-64h64zM320 256h-320v-64h320v64zM320 256h64v128h-64v-128zM320 384v64h-64v-64h64z" />
    <glyph glyph-name="uniFB65" unicode="&#x67f;" horiz-adv-x="512" arabic-form="medial" 
d="M512 192v64h-128v128h-64v-128h-320v-64h512zM256 576v64h-64v-64h64zM384 576v64h-64v-64h64zM256 704v64h-64v-64h64zM384 704v64h-64v-64h64zM320 384v64h-64v-64h64z" />
    <glyph glyph-name="uniFB66" unicode="&#x679;" horiz-adv-x="512" arabic-form="isolated" 
d="M192 320v64h-64v-64h-64v-64h64v-64h256v64h-256v64h64zM384 256h64v128h-64v-128zM384 384v64h-64v-64h64zM128 768v-256h192v128h-128v128h-64z" />
    <glyph glyph-name="uniFB67" unicode="&#x679;" horiz-adv-x="512" arabic-form="final" 
d="M512 192v64h-64v128h-64v-128h-256v-64h384zM192 320v64h-64v-64h-64v-64h64v64h64zM384 384v64h-64v-64h64zM128 768v-256h192v128h-128v128h-64z" />
    <glyph glyph-name="uniFB68" unicode="&#x679;" horiz-adv-x="512" arabic-form="initial" 
d="M320 256h-320v-64h320v64zM320 256h64v128h-64v-128zM320 384v64h-64v-64h64zM192 768v-256h192v128h-128v128h-64z" />
    <glyph glyph-name="uniFB69" unicode="&#x679;" horiz-adv-x="512" arabic-form="medial" 
d="M512 192v64h-128v128h-64v-128h-320v-64h512zM320 384v64h-64v-64h64zM192 768v-256h192v128h-128v128h-64z" />
    <glyph glyph-name="uniFB6A" unicode="&#x6a4;" horiz-adv-x="512" arabic-form="isolated" 
d="M256 640v64h-64v-64h64zM448 640v64h-64v-64h64zM320 768v64h-64v-64h64zM128 256v-64h256v64h-256zM128 256v128h-64v-128h64zM384 256h64v320h-128v-64h-64v-64h64v-64h64v-128zM320 448v64h64v-64h-64z" />
    <glyph glyph-name="uniFB6B" unicode="&#x6a4;" horiz-adv-x="512" arabic-form="final" 
d="M512 192v64h-64v320h-128v-64h-64v-64h64v-64h64v-128h-256v-64h384zM256 640v64h-64v-64h64zM448 640v64h-64v-64h64zM320 768v64h-64v-64h64zM128 256v128h-64v-128h64zM320 448v64h64v-64h-64z" />
    <glyph glyph-name="uniFB6C" unicode="&#x6a4;" horiz-adv-x="512" arabic-form="initial" 
d="M192 640v64h-64v-64h64zM384 640v64h-64v-64h64zM256 768v64h-64v-64h64zM320 256h64v192h-64v-128h-64v-64h-256v-64h320v64zM256 320v64h-64v-64h64zM192 384v64h128v64h-192v-128h64z" />
    <glyph glyph-name="uniFB6D" unicode="&#x6a4;" horiz-adv-x="512" arabic-form="medial" 
d="M512 192v64h-128v-64h128zM192 640v64h-64v-64h64zM384 640v64h-64v-64h64zM256 768v64h-64v-64h64zM320 256h64v192h-64v-128h-64v-64h-256v-64h320v64zM256 320v64h-64v-64h64zM192 384v64h128v64h-192v-128h64z" />
    <glyph glyph-name="uniFB6E" unicode="&#x6a6;" horiz-adv-x="512" arabic-form="isolated" 
d="M320 640v64h-64v-64h64zM448 640v64h-64v-64h64zM320 768v64h-64v-64h64zM448 768v64h-64v-64h64zM128 256v-64h256v64h-256zM128 256v128h-64v-128h64zM384 256h64v320h-128v-64h-64v-64h64v-64h64v-128zM320 448v64h64v-64h-64z" />
    <glyph glyph-name="uniFB6F" unicode="&#x6a6;" horiz-adv-x="512" arabic-form="final" 
d="M512 192v64h-64v320h-128v-64h-64v-64h64v-64h64v-128h-256v-64h384zM320 640v64h-64v-64h64zM448 640v64h-64v-64h64zM320 768v64h-64v-64h64zM448 768v64h-64v-64h64zM128 256v128h-64v-128h64zM320 448v64h64v-64h-64z" />
    <glyph glyph-name="uniFB70" unicode="&#x6a6;" horiz-adv-x="512" arabic-form="initial" 
d="M192 640v64h-64v-64h64zM320 640v64h-64v-64h64zM192 768v64h-64v-64h64zM320 768v64h-64v-64h64zM320 256h64v192h-64v-128h-64v-64h-256v-64h320v64zM256 320v64h-64v-64h64zM192 384v64h128v64h-192v-128h64z" />
    <glyph glyph-name="uniFB71" unicode="&#x6a6;" horiz-adv-x="512" arabic-form="medial" 
d="M512 192v64h-128v-64h128zM192 640v64h-64v-64h64zM320 640v64h-64v-64h64zM192 768v64h-64v-64h64zM320 768v64h-64v-64h64zM320 256h64v192h-64v-128h-64v-64h-256v-64h320v64zM256 320v64h-64v-64h64zM192 384v64h128v64h-192v-128h64z" />
    <glyph glyph-name="uniFB72" unicode="&#x684;" horiz-adv-x="512" arabic-form="isolated" 
d="M448 -64v64h-64v-64h-192v-64h192v64h64zM320 0v64h-64v-64h64zM320 128v64h-64v-64h64zM448 320v64h-384v-64h128v-64h-64v-64h-64v-192h64v-64h64v64h-64v192h64v64h64v64h192z" />
    <glyph glyph-name="uniFB73" unicode="&#x684;" horiz-adv-x="512" arabic-form="final" 
d="M512 -64v64h-64v-64h-256v-64h256v64h64zM320 0v64h-64v-64h64zM320 128v64h-64v-64h64zM512 192v64h-128v-64h128zM448 320v64h-384v-64h128v-64h-64v-64h-64v-192h64v-64h64v64h-64v192h64v64h64v64h64v-64h64v64h64z" />
    <glyph glyph-name="uniFB74" unicode="&#x684;" horiz-adv-x="512" arabic-form="initial" 
d="M192 -64v64h-64v-64h64zM192 64v64h-64v-64h64zM256 256h-256v-64h384v128h-128v-64zM256 320v64h-192v-64h192z" />
    <glyph glyph-name="uniFB75" unicode="&#x684;" horiz-adv-x="512" arabic-form="medial" 
d="M192 -64v64h-64v-64h64zM192 64v64h-64v-64h64zM512 192v64h-128v64h-128v-64h-256v-64h512zM256 320v64h-192v-64h192z" />
    <glyph glyph-name="uniFB76" unicode="&#x683;" horiz-adv-x="512" arabic-form="isolated" 
d="M448 -64v64h-64v-64h-192v-64h192v64h64zM256 64v64h-64v-64h64zM384 64v64h-64v-64h64zM448 320v64h-384v-64h128v-64h-64v-64h-64v-192h64v-64h64v64h-64v192h64v64h64v64h192z" />
    <glyph glyph-name="uniFB77" unicode="&#x683;" horiz-adv-x="512" arabic-form="final" 
d="M512 -64v64h-64v-64h-256v-64h256v64h64zM256 64v64h-64v-64h64zM384 64v64h-64v-64h64zM512 192v64h-128v-64h128zM448 320v64h-384v-64h128v-64h-64v-64h-64v-192h64v-64h64v64h-64v192h64v64h64v64h64v-64h64v64h64z" />
    <glyph glyph-name="uniFB78" unicode="&#x683;" horiz-adv-x="512" arabic-form="initial" 
d="M128 64v64h-64v-64h64zM256 64v64h-64v-64h64zM256 256h-256v-64h384v128h-128v-64zM256 320v64h-192v-64h192z" />
    <glyph glyph-name="uniFB79" unicode="&#x683;" horiz-adv-x="512" arabic-form="medial" 
d="M128 64v64h-64v-64h64zM256 64v64h-64v-64h64zM512 192v64h-128v64h-128v-64h-256v-64h512zM256 320v64h-192v-64h192z" />
    <glyph glyph-name="uniFB7A" unicode="&#x686;" horiz-adv-x="512" arabic-form="isolated" 
d="M448 -64v64h-64v-64h-192v-64h192v64h64zM320 0v64h-64v-64h64zM256 128v64h-64v-64h64zM384 128v64h-64v-64h64zM448 320v64h-384v-64h64v-64h-64v-256h64v-64h64v64h-64v256h64v64h256z" />
    <glyph glyph-name="uniFB7B" unicode="&#x686;" horiz-adv-x="512" arabic-form="final" 
d="M512 -64v64h-64v-64h-256v-64h256v64h64zM320 0v64h-64v-64h64zM256 128v64h-64v-64h64zM384 128v64h-64v-64h64zM512 192v64h-64v-64h64zM192 -64v64h-64v-64h64zM128 0v256h-64v-256h64zM128 256h64v64h192v-64h64v128h-384v-64h64v-64z" />
    <glyph glyph-name="uniFB7C" unicode="&#x686;" horiz-adv-x="512" arabic-form="initial" 
d="M256 -64v64h-64v-64h64zM192 64v64h-64v-64h64zM320 64v64h-64v-64h64zM256 256h-256v-64h384v128h-128v-64zM256 320v64h-192v-64h192z" />
    <glyph glyph-name="uniFB7D" unicode="&#x686;" horiz-adv-x="512" arabic-form="medial" 
d="M256 -64v64h-64v-64h64zM192 64v64h-64v-64h64zM320 64v64h-64v-64h64zM512 192v64h-128v64h-128v-64h-256v-64h512zM256 320v64h-192v-64h192z" />
    <glyph glyph-name="uniFB7E" unicode="&#x687;" horiz-adv-x="512" arabic-form="isolated" 
d="M448 -64v64h-64v-64h-192v-64h192v64h64zM256 0v64h-64v-64h-64v-64h64v64h64zM256 128v64h-64v-64h64zM384 128v64h-64v-64h64zM448 320v64h-384v-64h64v-64h-64v-256h64v256h64v64h256zM384 0v64h-64v-64h64z" />
    <glyph glyph-name="uniFB7F" unicode="&#x687;" horiz-adv-x="512" arabic-form="final" 
d="M512 -64v64h-64v-64h-256v-64h256v64h64zM256 0v64h-64v-64h-64v-64h64v64h64zM384 0v64h-64v-64h64zM256 128v64h-64v-64h64zM512 192v64h-128v-64h-64v-64h64v64h128zM448 320v64h-384v-64h64v-64h-64v-256h64v256h64v64h128v-64h64v64h64z" />
    <glyph glyph-name="uniFB80" unicode="&#x687;" horiz-adv-x="512" arabic-form="initial" 
d="M128 -64v64h-64v-64h64zM256 -64v64h-64v-64h64zM128 64v64h-64v-64h64zM256 64v64h-64v-64h64zM256 256h-256v-64h384v128h-128v-64zM256 320v64h-192v-64h192z" />
    <glyph glyph-name="uniFB81" unicode="&#x687;" horiz-adv-x="512" arabic-form="medial" 
d="M128 -64v64h-64v-64h64zM256 -64v64h-64v-64h64zM128 64v64h-64v-64h64zM256 64v64h-64v-64h64zM512 192v64h-128v64h-128v-64h-256v-64h512zM256 320v64h-192v-64h192z" />
    <glyph glyph-name="uniFB82" unicode="&#x68d;" horiz-adv-x="512" arabic-form="isolated" 
d="M192 64v64h-64v-64h64zM320 64v64h-64v-64h64zM64 320v-128h320v64h-256v64h-64zM384 256h64v128h-64v-128zM384 384v64h-64v-64h64zM320 448v64h-64v-64h64z" />
    <glyph glyph-name="uniFB83" unicode="&#x68d;" horiz-adv-x="512" arabic-form="final" 
d="M192 64v64h-64v-64h64zM320 64v64h-64v-64h64zM512 192v64h-64v128h-64v-128h-256v64h-64v-128h448zM384 384v64h-64v-64h64zM320 448v64h-64v-64h64z" />
    <glyph glyph-name="uniFB84" unicode="&#x68c;" horiz-adv-x="512" arabic-form="isolated" 
d="M192 640v64h-64v-64h64zM320 640v64h-64v-64h64zM64 320v-128h320v64h-256v64h-64zM384 256h64v128h-64v-128zM384 384v64h-64v-64h64zM320 448v64h-64v-64h64z" />
    <glyph glyph-name="uniFB85" unicode="&#x68c;" horiz-adv-x="512" arabic-form="final" 
d="M512 192v64h-64v128h-64v-128h-256v64h-64v-128h448zM192 640v64h-64v-64h64zM320 640v64h-64v-64h64zM384 384v64h-64v-64h64zM320 448v64h-64v-64h64z" />
    <glyph glyph-name="uniFB86" unicode="&#x68e;" horiz-adv-x="512" arabic-form="isolated" 
d="M192 576v64h-64v-64h64zM320 576v64h-64v-64h64zM256 704v64h-64v-64h64zM64 320v-128h320v64h-256v64h-64zM384 256h64v128h-64v-128zM384 384v64h-64v-64h64zM320 448v64h-64v-64h64z" />
    <glyph glyph-name="uniFB87" unicode="&#x68e;" horiz-adv-x="512" arabic-form="final" 
d="M512 192v64h-64v128h-64v-128h-256v64h-64v-128h448zM192 576v64h-64v-64h64zM320 576v64h-64v-64h64zM256 704v64h-64v-64h64zM384 384v64h-64v-64h64zM320 448v64h-64v-64h64z" />
    <glyph glyph-name="uniFB88" unicode="&#x688;" horiz-adv-x="512" arabic-form="isolated" 
d="M64 320v-128h320v64h-256v64h-64zM384 256h64v128h-64v-128zM384 384v64h-64v-64h64zM320 448v64h-64v-64h64zM128 832v-256h192v128h-128v128h-64z" />
    <glyph glyph-name="uniFB89" unicode="&#x688;" horiz-adv-x="512" arabic-form="final" 
d="M512 192v64h-64v128h-64v-128h-256v64h-64v-128h448zM384 384v64h-64v-64h64zM320 448v64h-64v-64h64zM128 832v-256h192v128h-128v128h-64z" />
    <glyph glyph-name="uniFB8A" unicode="&#x698;" horiz-adv-x="512" arabic-form="isolated" 
d="M256 512v64h-64v-64h64zM384 512v64h-64v-64h64zM320 640v64h-64v-64h64zM128 0v-64h128v64h-128zM128 0v64h-64v-64h64zM256 0h64v64h-64v-64zM320 64h64v64h-64v-64zM384 128h64v192h-64v-192zM384 320v64h-64v-64h64z" />
    <glyph glyph-name="uniFB8B" unicode="&#x698;" horiz-adv-x="512" arabic-form="final" 
d="M512 192v64h-64v64h-64v-192h-64v-64h-64v-64h-128v-64h128v64h64v64h64v64h64v64h64zM256 512v64h-64v-64h64zM384 512v64h-64v-64h64zM320 640v64h-64v-64h64zM128 0v64h-64v-64h64zM384 320v64h-64v-64h64z" />
    <glyph glyph-name="uniFB8C" unicode="&#x691;" horiz-adv-x="512" arabic-form="isolated" 
d="M128 0v-64h128v64h-128zM128 0v64h-64v-64h64zM256 0h64v64h-64v-64zM320 64h64v64h-64v-64zM384 128h64v192h-64v-192zM384 320v64h-64v-64h64zM256 704v-256h192v128h-128v128h-64z" />
    <glyph glyph-name="uniFB8D" unicode="&#x691;" horiz-adv-x="512" arabic-form="final" 
d="M512 192v64h-64v64h-64v-192h-64v-64h-64v-64h-128v-64h128v64h64v64h64v64h64v64h64zM128 0v64h-64v-64h64zM384 320v64h-64v-64h64zM256 704v-256h192v128h-128v128h-64z" />
    <glyph glyph-name="uniFB8E" unicode="&#x6a9;" horiz-adv-x="512" arabic-form="isolated" 
d="M384 640v64h-64v-64h-64v-64h-64v-64h-64v-64h-64v-64h64v-64h256v-64h-320v-64h384v128h-64v64h-256v64h64v64h64v64h64v64h64zM64 256v64h-64v-64h64z" />
    <glyph glyph-name="uniFB8F" unicode="&#x6a9;" horiz-adv-x="512" arabic-form="final" 
d="M512 192v64h-64v64h-64v-64h-320v-64h448zM384 640v64h-64v-64h-64v-64h-64v-64h-64v-64h-64v-64h64v-64h256v64h-256v64h64v64h64v64h64v64h64zM64 256v64h-64v-64h64z" />
    <glyph glyph-name="uniFB90" unicode="&#x6a9;" horiz-adv-x="512" arabic-form="initial" 
d="M384 640v64h-64v-64h-64v-64h-64v-64h-64v-64h-64v-64h64v-64h256v-64h-384v-64h448v128h-64v64h-256v64h64v64h64v64h64v64h64z" />
    <glyph glyph-name="uniFB91" unicode="&#x6a9;" horiz-adv-x="512" arabic-form="medial" 
d="M512 192v64h-64v64h-64v-64h-384v-64h512zM384 640v64h-64v-64h-64v-64h-64v-64h-64v-64h-64v-64h64v-64h256v64h-256v64h64v64h64v64h64v64h64z" />
    <glyph glyph-name="uniFB92" unicode="&#x6af;" horiz-adv-x="512" arabic-form="isolated" 
d="M384 640v64h-64v-64h-64v-64h-64v-64h-64v-64h-64v-64h64v-64h256v-64h-320v-64h384v128h-64v64h-256v64h64v64h64v64h64v64h64zM320 768v64h-64v-64h-64v-64h-64v-64h-64v-64h64v64h64v64h64v64h64zM64 256v64h-64v-64h64z" />
    <glyph glyph-name="uniFB93" unicode="&#x6af;" horiz-adv-x="512" arabic-form="final" 
d="M512 192v64h-64v64h-64v-64h-320v-64h448zM384 640v64h-64v-64h-64v-64h-64v-64h-64v-64h-64v-64h64v-64h256v64h-256v64h64v64h64v64h64v64h64zM320 768v64h-64v-64h-64v-64h-64v-64h-64v-64h64v64h64v64h64v64h64zM64 256v64h-64v-64h64z" />
    <glyph glyph-name="uniFB94" unicode="&#x6af;" horiz-adv-x="512" arabic-form="initial" 
d="M384 640v64h-64v-64h-64v-64h-64v-64h-64v-64h-64v-64h64v-64h256v-64h-384v-64h448v128h-64v64h-256v64h64v64h64v64h64v64h64zM320 768v64h-64v-64h-64v-64h-64v-64h-64v-64h64v64h64v64h64v64h64z" />
    <glyph glyph-name="uniFB95" unicode="&#x6af;" horiz-adv-x="512" arabic-form="medial" 
d="M512 192v64h-64v64h-64v-64h-384v-64h512zM384 640v64h-64v-64h-64v-64h-64v-64h-64v-64h-64v-64h64v-64h256v64h-256v64h64v64h64v64h64v64h64zM320 768v64h-64v-64h-64v-64h-64v-64h-64v-64h64v64h64v64h64v64h64z" />
    <glyph glyph-name="uniFB96" unicode="&#x6b3;" horiz-adv-x="512" arabic-form="isolated" 
d="M256 -64v64h-64v-64h64zM256 64v64h-64v-64h64zM384 640v64h-64v-64h-64v-64h-64v-64h-64v-64h-64v-64h64v-64h256v-64h-320v-64h384v128h-64v64h-256v64h64v64h64v64h64v64h64zM320 768v64h-64v-64h-64v-64h-64v-64h-64v-64h64v64h64v64h64v64h64zM64 256v64h-64v-64h64
z" />
    <glyph glyph-name="uniFB97" unicode="&#x6b3;" horiz-adv-x="512" arabic-form="final" 
d="M256 -64v64h-64v-64h64zM256 64v64h-64v-64h64zM512 192v64h-64v64h-64v-64h-320v-64h448zM384 640v64h-64v-64h-64v-64h-64v-64h-64v-64h-64v-64h64v-64h256v64h-256v64h64v64h64v64h64v64h64zM320 768v64h-64v-64h-64v-64h-64v-64h-64v-64h64v64h64v64h64v64h64z
M64 256v64h-64v-64h64z" />
    <glyph glyph-name="uniFB98" unicode="&#x6b3;" horiz-adv-x="512" arabic-form="initial" 
d="M256 -64v64h-64v-64h64zM256 64v64h-64v-64h64zM384 640v64h-64v-64h-64v-64h-64v-64h-64v-64h-64v-64h64v-64h256v-64h-384v-64h448v128h-64v64h-256v64h64v64h64v64h64v64h64zM320 768v64h-64v-64h-64v-64h-64v-64h-64v-64h64v64h64v64h64v64h64z" />
    <glyph glyph-name="uniFB99" unicode="&#x6b3;" horiz-adv-x="512" arabic-form="medial" 
d="M256 -64v64h-64v-64h64zM256 64v64h-64v-64h64zM512 192v64h-64v64h-64v-64h-384v-64h512zM384 640v64h-64v-64h-64v-64h-64v-64h-64v-64h-64v-64h64v-64h256v64h-256v64h64v64h64v64h64v64h64zM320 768v64h-64v-64h-64v-64h-64v-64h-64v-64h64v64h64v64h64v64h64z" />
    <glyph glyph-name="uniFB9A" unicode="&#x6b1;" horiz-adv-x="512" arabic-form="isolated" 
d="M448 576v64h-64v-64h-128v-64h-128v-64h-64v-64h64v-64h256v-64h-320v-64h384v128h-64v64h-256v64h128v64h128v64h64zM448 704v64h-128v-64h-128v-64h-128v-64h128v64h128v64h128zM128 768v64h-64v-64h64zM256 768v64h-64v-64h64zM64 256v64h-64v-64h64z" />
    <glyph glyph-name="uniFB9B" unicode="&#x6b1;" horiz-adv-x="512" arabic-form="final" 
d="M512 192v64h-64v64h-64v-64h-320v-64h448zM448 576v64h-64v-64h-128v-64h-128v-64h-64v-64h64v-64h256v64h-256v64h128v64h128v64h64zM448 704v64h-128v-64h-128v-64h-128v-64h128v64h128v64h128zM128 768v64h-64v-64h64zM256 768v64h-64v-64h64zM64 256v64h-64v-64h64z
" />
    <glyph glyph-name="uniFB9C" unicode="&#x6b1;" horiz-adv-x="512" arabic-form="initial" 
d="M448 576v64h-64v-64h-128v-64h-128v-64h-64v-64h64v-64h256v-64h-384v-64h448v128h-64v64h-256v64h128v64h128v64h64zM448 704v64h-128v-64h-128v-64h-128v-64h128v64h128v64h128zM128 768v64h-64v-64h64zM256 768v64h-64v-64h64z" />
    <glyph glyph-name="uniFB9D" unicode="&#x6b1;" horiz-adv-x="512" arabic-form="medial" 
d="M512 192v64h-64v64h-64v-64h-384v-64h512zM448 576v64h-64v-64h-128v-64h-128v-64h-64v-64h64v-64h256v64h-256v64h128v64h128v64h64zM448 704v64h-128v-64h-128v-64h-128v-64h128v64h128v64h128zM128 768v64h-64v-64h64zM256 768v64h-64v-64h64z" />
    <glyph glyph-name="uniFB9E" unicode="&#x6ba;" horiz-adv-x="512" arabic-form="isolated" 
d="M192 256v64h-64v-64h-64v-192h64v-64h192v64h-192v192h64zM320 64h64v64h-64v-64zM384 128h64v192h-64v-192zM384 320v64h-64v-64h64z" />
    <glyph glyph-name="uniFB9F" unicode="&#x6ba;" horiz-adv-x="512" arabic-form="final" 
d="M512 192v64h-64v64h-64v-192h-64v-64h-192v-64h192v64h64v64h64v64h64zM192 256v64h-64v-64h-64v-192h64v192h64zM384 320v64h-64v-64h64z" />
    <glyph glyph-name="uniFBA0" unicode="&#x6bb;" horiz-adv-x="512" arabic-form="isolated" 
d="M192 256v64h-64v-64h-64v-192h64v-64h192v64h-192v192h64zM320 64h64v64h-64v-64zM384 128h64v192h-64v-192zM384 320v64h-64v-64h64zM192 768v-256h192v128h-128v128h-64z" />
    <glyph glyph-name="uniFBA1" unicode="&#x6bb;" horiz-adv-x="512" arabic-form="final" 
d="M512 192v64h-64v64h-64v-192h-64v-64h-192v-64h192v64h64v64h64v64h64zM192 256v64h-64v-64h-64v-192h64v192h64zM384 320v64h-64v-64h64zM192 768v-256h192v128h-128v128h-64z" />
    <glyph glyph-name="uniFBA2" unicode="&#x6bb;" horiz-adv-x="512" arabic-form="initial" 
d="M320 256h-320v-64h320v64zM320 256h64v128h-64v-128zM320 384v64h-64v-64h64zM192 768v-256h192v128h-128v128h-64z" />
    <glyph glyph-name="uniFBA3" unicode="&#x6bb;" horiz-adv-x="512" arabic-form="medial" 
d="M512 192v64h-128v-64h128zM320 256h-320v-64h320v64zM320 256h64v128h-64v-128zM320 384v64h-64v-64h64zM192 768v-256h192v128h-128v128h-64z" />
    <glyph glyph-name="uniFBA4" unicode="&#x6c0;" horiz-adv-x="512" arabic-form="isolated" 
d="M320 640v64h-128v-64h-64v-64h64v64h128zM320 768v64h-128v-64h-64v-64h64v64h128zM128 384v-192h256v192h-64v-128h-128v128h-64zM192 384h128v64h-64v64h-64v-128z" />
    <glyph glyph-name="uniFBA5" unicode="&#x6c0;" horiz-adv-x="512" arabic-form="final" 
d="M512 192v64h-128v384h-64v-128h-64v-64h-64v-64h-64v-128h192v-64h192zM320 704v64h-128v-64h-64v-64h64v64h128zM320 832v64h-128v-64h-64v-64h64v64h128zM192 320v64h64v64h64v-128h-128z" />
    <glyph glyph-name="uniFBA6" unicode="&#x6c1;" horiz-adv-x="512" arabic-form="isolated" 
d="M128 384v-192h256v192h-64v-128h-128v128h-64zM192 384h128v64h-64v64h-64v-128z" />
    <glyph glyph-name="uniFBA7" unicode="&#x6c1;" horiz-adv-x="512" arabic-form="final" 
d="M512 192v64h-256v-64h256zM128 192h-64v-64h64v64zM128 192h64v64h-64v-64zM192 256h64v64h-64v-64z" />
    <glyph glyph-name="uniFBA8" unicode="&#x6c1;" horiz-adv-x="512" arabic-form="initial" 
d="M384 0v64h-64v-64h-64v-64h64v64h64zM256 0v320h-64v-64h-192v-64h192v-192h64z" />
    <glyph glyph-name="uniFBA9" unicode="&#x6c1;" horiz-adv-x="512" arabic-form="medial" 
d="M512 192v64h-128v-64h-64v-192h-64v-128h64v128h64v192h128zM256 0v320h-64v-64h-192v-64h192v-192h64z" />
    <glyph glyph-name="uniFBAA" unicode="&#x6be;" horiz-adv-x="512" arabic-form="isolated" 
d="M128 192h-64v-64h64v64zM128 192h64v64h-64v-64zM192 256h128v-64h64v64h-64v128h64v-128h64v128h-64v64h-128v-128h-64v-64zM192 320v128h-64v-128h64zM192 448h64v64h-64v-64z" />
    <glyph glyph-name="uniFBAB" unicode="&#x6be;" horiz-adv-x="512" arabic-form="final" 
d="M512 192v64h-64v128h-64v-128h-64v-64h192zM128 192h-64v-64h64v64zM128 192h64v64h-64v-64zM192 256h128v128h64v64h-128v-128h-64v-64zM192 320v128h-64v-128h64zM192 448h64v64h-64v-64z" />
    <glyph glyph-name="uniFBAC" unicode="&#x6be;" horiz-adv-x="512" arabic-form="initial" 
d="M192 256h-192v-64h192v64zM192 256h128v-64h64v64h-64v128h64v-128h64v128h-64v64h-128v-128h-64v-64zM192 320v128h-64v-128h64zM192 448h64v64h-64v-64z" />
    <glyph glyph-name="uniFBAD" unicode="&#x6be;" horiz-adv-x="512" arabic-form="medial" 
d="M512 192v64h-64v128h-64v-128h-64v-64h192zM192 256h-192v-64h192v64zM192 256h128v128h64v64h-128v-128h-64v-64zM192 320v128h-64v-128h64zM192 448h64v64h-64v-64z" />
    <glyph glyph-name="uniFBAE" unicode="&#x6d2;" horiz-adv-x="512" arabic-form="isolated" 
d="M512 -64v64h-384v64h-64v-128h448zM384 192v64h-64v-64h64zM128 64h64v64h-64v-64zM192 128h64v128h-64v-128zM256 256h64v64h-64v-64z" />
    <glyph glyph-name="uniFBAF" unicode="&#x6d2;" horiz-adv-x="512" arabic-form="final" 
d="M512 -64v64h-384v64h-64v-128h448zM512 192v64h-256v-64h-64v-64h-64v-64h64v64h64v64h256z" />
    <glyph glyph-name="uniFBB0" unicode="&#x6d3;" horiz-adv-x="512" arabic-form="isolated" 
d="M512 -64v64h-384v64h-64v-128h448zM384 192v64h-64v-64h64zM256 384v64h-128v-64h-64v-64h64v64h128zM256 512v64h-128v-64h-64v-64h64v64h128zM128 64h64v64h-64v-64zM192 128h64v128h-64v-128zM256 256h64v64h-64v-64z" />
    <glyph glyph-name="uniFBB1" unicode="&#x6d3;" horiz-adv-x="512" arabic-form="final" 
d="M512 -64v64h-384v64h-64v-128h448zM512 192v64h-256v-64h-64v-64h-64v-64h64v64h64v64h256zM256 384v64h-128v-64h-64v-64h64v64h128zM256 512v64h-128v-64h-64v-64h64v64h128z" />
    <glyph glyph-name="uniFBD3" unicode="&#x6ad;" horiz-adv-x="512" arabic-form="isolated" 
d="M192 384v64h-64v-64h-64v-128h64v-64h256v64h-256v128h64zM320 448v64h-64v-64h64zM320 576v64h-64v-64h-64v-64h64v64h64zM192 704v64h-64v-64h64zM320 704v64h-64v-64h64zM256 832v64h-64v-64h64zM384 256h64v448h-64v-448z" />
    <glyph glyph-name="uniFBD4" unicode="&#x6ad;" horiz-adv-x="512" arabic-form="final" 
d="M512 192v64h-64v448h-64v-448h-256v-64h384zM192 384v64h-64v-64h-64v-128h64v128h64zM320 448v64h-64v-64h64zM320 576v64h-64v-64h-64v-64h64v64h64zM192 704v64h-64v-64h64zM320 704v64h-64v-64h64zM256 832v64h-64v-64h64z" />
    <glyph glyph-name="uniFBD5" unicode="&#x6ad;" horiz-adv-x="512" arabic-form="initial" 
d="M384 640v64h-64v-64h-64v-64h-64v-64h-64v-64h-64v-64h64v-64h256v-64h-384v-64h448v128h-64v64h-256v64h64v64h64v64h64v64h64zM128 704v64h-64v-64h64zM256 704v64h-64v-64h64zM192 832v64h-64v-64h64z" />
    <glyph glyph-name="uniFBD6" unicode="&#x6ad;" horiz-adv-x="512" arabic-form="medial" 
d="M512 192v64h-64v64h-64v-64h-384v-64h512zM384 640v64h-64v-64h-64v-64h-64v-64h-64v-64h-64v-64h64v-64h256v64h-256v64h64v64h64v64h64v64h64zM128 704v64h-64v-64h64zM256 704v64h-64v-64h64zM192 832v64h-64v-64h64z" />
    <glyph glyph-name="uniFBD7" unicode="&#x6c7;" horiz-adv-x="512" arabic-form="isolated" 
d="M128 0v-64h128v64h-128zM128 0v64h-64v-64h64zM256 0h64v64h-64v-64zM320 64h64v64h-64v-64zM384 128h64v256h-64v-128h-128v128h-64v-192h192v-64zM256 384h128v64h-128v-64zM192 512h-64v-64h64v64zM192 512h64v64h-64v-64zM256 576h64v192h-128v-128h64v-64z" />
    <glyph glyph-name="uniFBD8" unicode="&#x6c7;" horiz-adv-x="512" arabic-form="final" 
d="M512 192v64h-64v128h-64v-128h-128v128h-64v-192h192v-64h-64v-64h-64v-64h-128v-64h128v64h64v64h64v64h64v64h64zM128 0v64h-64v-64h64zM256 384h128v64h-128v-64zM192 512h-64v-64h64v64zM192 512h64v64h-64v-64zM256 576h64v192h-128v-128h64v-64z" />
    <glyph glyph-name="uniFBD9" unicode="&#x6c6;" horiz-adv-x="512" arabic-form="isolated" 
d="M448 640v64h-64v-64h-64v-64h-64v-64h64v64h64v64h64zM128 0v-64h128v64h-128zM128 0v64h-64v-64h64zM256 0h64v64h-64v-64zM320 64h64v64h-64v-64zM384 128h64v256h-64v-128h-128v128h-64v-192h192v-64zM256 384h128v64h-128v-64zM256 576v64h-64v-64h64zM192 640v64
h-64v-64h64z" />
    <glyph glyph-name="uniFBDA" unicode="&#x6c6;" horiz-adv-x="512" arabic-form="final" 
d="M512 192v64h-64v128h-64v-128h-128v128h-64v-192h192v-64h-64v-64h-64v-64h-128v-64h128v64h64v64h64v64h64v64h64zM448 640v64h-64v-64h-64v-64h-64v-64h64v64h64v64h64zM128 0v64h-64v-64h64zM256 384h128v64h-128v-64zM256 576v64h-64v-64h64zM192 640v64h-64v-64h64z
" />
    <glyph glyph-name="uniFBDB" unicode="&#x6c8;" horiz-adv-x="512" arabic-form="isolated" 
d="M128 0v-64h128v64h-128zM128 0v64h-64v-64h64zM256 0h64v64h-64v-64zM320 64h64v64h-64v-64zM384 128h64v256h-64v-128h-128v128h-64v-192h192v-64zM256 384h128v64h-128v-64zM320 640v-128h64v128h-64zM320 640v64h-64v-64h64z" />
    <glyph glyph-name="uniFBDC" unicode="&#x6c8;" horiz-adv-x="512" arabic-form="final" 
d="M512 192v64h-64v128h-64v-128h-128v128h-64v-192h192v-64h-64v-64h-64v-64h-128v-64h128v64h64v64h64v64h64v64h64zM128 0v64h-64v-64h64zM256 384h128v64h-128v-64zM320 640v-128h64v128h-64zM320 640v64h-64v-64h64z" />
    <glyph glyph-name="uniFBDD" unicode="&#x677;" horiz-adv-x="512" arabic-form="isolated" 
d="M512 512v64h-128v-64h-64v-64h64v64h128zM512 640v64h-128v-64h-64v-64h64v64h128zM192 0h-128v-64h128v64zM192 0h64v64h-64v-64zM256 64h64v320h-64v-128h-64v128h-64v-192h128v-128zM192 384h64v64h-64v-64zM128 512h-64v-64h64v64zM128 512h64v64h-64v-64zM192 576
h64v192h-128v-128h64v-64z" />
    <glyph glyph-name="uniFBDE" unicode="&#x6cb;" horiz-adv-x="512" arabic-form="isolated" 
d="M256 576v64h-64v-64h64zM448 576v64h-64v-64h64zM320 704v64h-64v-64h64zM128 0v-64h128v64h-128zM128 0v64h-64v-64h64zM256 0h64v64h-64v-64zM320 64h64v64h-64v-64zM384 128h64v256h-64v-128h-128v128h-64v-192h192v-64zM256 384h128v64h-128v-64z" />
    <glyph glyph-name="uniFBDF" unicode="&#x6cb;" horiz-adv-x="512" arabic-form="final" 
d="M512 192v64h-64v128h-64v-128h-128v128h-64v-192h192v-64h-64v-64h-64v-64h-128v-64h128v64h64v64h64v64h64v64h64zM256 576v64h-64v-64h64zM448 576v64h-64v-64h64zM320 704v64h-64v-64h64zM128 0v64h-64v-64h64zM256 384h128v64h-128v-64z" />
    <glyph glyph-name="uniFBE0" unicode="&#x6c5;" horiz-adv-x="512" arabic-form="isolated" 
d="M128 0v-64h128v64h-128zM128 0v64h-64v-64h64zM256 0h64v64h64v64h-256v-64h128v-64zM384 128h64v256h-64v-128h-128v128h-64v-192h192v-64zM256 384h128v64h-128v-64z" />
    <glyph glyph-name="uniFBE1" unicode="&#x6c5;" horiz-adv-x="512" arabic-form="final" 
d="M512 192v64h-64v128h-64v-128h-128v128h-64v-192h192v-64h-256v-64h-64v-64h64v-64h128v64h-128v64h128v-64h64v64h64v64h64v64h64zM256 384h128v64h-128v-64z" />
    <glyph glyph-name="uniFBE2" unicode="&#x6c9;" horiz-adv-x="512" arabic-form="isolated" 
d="M448 512v64h-64v-64h64zM128 0v-64h128v64h-128zM128 0v64h-64v-64h64zM256 0h64v64h-64v-64zM320 64h64v64h-64v-64zM384 128h64v256h-64v-128h-128v128h-64v-192h192v-64zM256 384h128v64h-128v-64zM192 576h-64v-64h64v64zM192 576h64v64h-64v-64zM384 576v64h-64v-64
h64zM256 640h64v64h-64v-64z" />
    <glyph glyph-name="uniFBE3" unicode="&#x6c9;" horiz-adv-x="512" arabic-form="final" 
d="M512 192v64h-64v128h-64v-128h-128v128h-64v-192h192v-64h-64v-64h-64v-64h-128v-64h128v64h64v64h64v64h64v64h64zM448 512v64h-64v-64h64zM128 0v64h-64v-64h64zM256 384h128v64h-128v-64zM192 576h-64v-64h64v64zM192 576h64v64h-64v-64zM384 576v64h-64v-64h64z
M256 640h64v64h-64v-64z" />
    <glyph glyph-name="uniFBE4" unicode="&#x6d0;" horiz-adv-x="512" arabic-form="isolated" 
d="M256 -128v64h-64v-64h64zM256 0v64h-64v-64h64zM384 192v64h-64v-64h-192v-64h192v64h64zM448 320v64h-64v-64h64zM128 192v192h-64v-192h64zM320 256v64h-64v-64h64zM256 320v64h-64v-64h64zM256 384h128v64h-128v-64z" />
    <glyph glyph-name="uniFBE5" unicode="&#x6d0;" horiz-adv-x="512" arabic-form="final" 
d="M256 -128v64h-64v-64h64zM256 0v64h-64v-64h64zM320 192v64h-64v-64h-128v-64h128v64h64zM512 192v64h-64v-64h64zM128 192v192h-64v-192h64zM256 256v64h-64v-64h64zM448 256v64h-64v-64h64zM256 320h128v64h-128v-64z" />
    <glyph glyph-name="uniFBE6" unicode="&#x6d0;" horiz-adv-x="512" arabic-form="initial" 
d="M320 -64v64h-64v-64h64zM320 64v64h-64v-64h64zM384 256v64h-64v-64h-320v-64h320v64h64zM320 320v128h-64v-128h64z" />
    <glyph glyph-name="uniFBE7" unicode="&#x6d0;" horiz-adv-x="512" arabic-form="medial" 
d="M320 -64v64h-64v-64h64zM320 64v64h-64v-64h64zM512 192v64h-128v-64h128zM320 256h-320v-64h320v64zM320 256h64v64h-64v-64zM320 320v128h-64v-128h64z" />
    <glyph glyph-name="uniFBE8" unicode="&#x649;" horiz-adv-x="512" arabic-form="initial" 
d="M384 256v64h-64v-64h-320v-64h320v64h64zM320 320v128h-64v-128h64z" />
    <glyph glyph-name="uniFBE9" unicode="&#x649;" horiz-adv-x="512" arabic-form="medial" 
d="M512 192v64h-128v-64h128zM320 256h-320v-64h320v64zM320 256h64v64h-64v-64zM320 320v128h-64v-128h64z" />
    <glyph glyph-name="uniFBEA" unicode="&#xfbea;" horiz-adv-x="512" arabic-form="isolated" 
d="M384 512v64h-128v-64h-64v-64h64v64h128zM384 640v64h-128v-64h-64v-64h64v64h128zM128 256v-64h192v64h-192zM128 256v448h-64v-448h64zM320 256h64v128h-64v-128z" />
    <glyph glyph-name="uniFBEB" unicode="&#xfbeb;" horiz-adv-x="512" arabic-form="final" 
d="M512 192v64h-128v-64h128zM384 512v64h-128v-64h-64v-64h64v64h128zM384 640v64h-128v-64h-64v-64h64v64h128zM128 256v-64h192v64h-192zM128 256v448h-64v-448h64zM320 256h64v128h-64v-128z" />
    <glyph glyph-name="uniFBEC" unicode="&#xfbec;" horiz-adv-x="512" arabic-form="isolated" 
d="M448 512v64h-128v-64h-64v-64h64v64h128zM448 640v64h-128v-64h-64v-64h64v64h128zM128 192h-64v-64h64v64zM128 192h64v64h-64v-64zM192 256h64v-64h128v64h-128v64h-64v-64zM384 256h64v128h-64v-128z" />
    <glyph glyph-name="uniFBED" unicode="&#xfbed;" horiz-adv-x="512" arabic-form="final" 
d="M512 192v64h-64v-64h64zM448 512v64h-128v-64h-64v-64h64v64h128zM448 640v64h-128v-64h-64v-64h64v64h128zM128 192h-64v-64h64v64zM128 192h64v64h-64v-64zM192 256h64v-64h128v64h-128v64h-64v-64zM384 256h64v128h-64v-128z" />
    <glyph glyph-name="uniFBEE" unicode="&#xfbee;" horiz-adv-x="512" arabic-form="isolated" 
d="M512 512v64h-128v-64h-64v-64h64v64h128zM512 640v64h-128v-64h-64v-64h64v64h128zM192 0h-128v-64h128v64zM192 0h64v64h-64v-64zM256 64h64v128h64v64h-64v128h-64v-128h-64v128h-64v-192h128v-128zM384 256h64v128h-64v-128zM192 384h64v64h-64v-64z" />
    <glyph glyph-name="uniFBEF" unicode="&#xfbef;" horiz-adv-x="512" arabic-form="final" 
d="M512 192v64h-64v-64h64zM512 512v64h-128v-64h-64v-64h64v64h128zM512 640v64h-128v-64h-64v-64h64v64h128zM192 0h-128v-64h128v64zM192 0h64v64h-64v-64zM256 64h64v128h64v64h-64v128h-64v-128h-64v128h-64v-192h128v-128zM384 256h64v128h-64v-128zM192 384h64v64
h-64v-64z" />
    <glyph glyph-name="uniFBF0" unicode="&#xfbf0;" horiz-adv-x="512" arabic-form="isolated" 
d="M512 512v64h-128v-64h-64v-64h64v64h128zM512 640v64h-128v-64h-64v-64h64v64h128zM192 0h-128v-64h128v64zM192 0h64v64h-64v-64zM256 64h64v128h64v64h-64v128h-64v-128h-64v128h-64v-192h128v-128zM384 256h64v128h-64v-128zM192 384h64v64h-64v-64zM128 512h-64v-64
h64v64zM128 512h64v64h-64v-64zM192 576h64v192h-128v-128h64v-64z" />
    <glyph glyph-name="uniFBF1" unicode="&#xfbf1;" horiz-adv-x="512" arabic-form="final" 
d="M512 192v64h-64v-64h64zM512 512v64h-128v-64h-64v-64h64v64h128zM512 640v64h-128v-64h-64v-64h64v64h128zM192 0h-128v-64h128v64zM192 0h64v64h-64v-64zM256 64h64v128h64v64h-64v128h-64v-128h-64v128h-64v-192h128v-128zM384 256h64v128h-64v-128zM192 384h64v64
h-64v-64zM128 512h-64v-64h64v64zM128 512h64v64h-64v-64zM192 576h64v192h-128v-128h64v-64z" />
    <glyph glyph-name="uniFBF2" unicode="&#xfbf2;" horiz-adv-x="512" arabic-form="isolated" 
d="M512 512v64h-128v-64h-64v-64h64v64h128zM512 640v64h-128v-64h-64v-64h64v64h128zM320 704v64h-64v-64h-64v-64h-64v-128h64v128h64v64h64zM192 0h-128v-64h128v64zM192 0h64v64h-64v-64zM256 64h64v128h64v64h-64v128h-64v-128h-64v128h-64v-192h128v-128zM384 256h64
v128h-64v-128zM192 384h64v64h-64v-64zM128 640v64h-64v-64h64zM64 704v64h-64v-64h64z" />
    <glyph glyph-name="uniFBF3" unicode="&#xfbf3;" horiz-adv-x="512" arabic-form="final" 
d="M512 192v64h-64v-64h64zM512 512v64h-128v-64h-64v-64h64v64h128zM512 640v64h-128v-64h-64v-64h64v64h128zM320 704v64h-64v-64h-64v-64h-64v-128h64v128h64v64h64zM192 0h-128v-64h128v64zM192 0h64v64h-64v-64zM256 64h64v128h64v64h-64v128h-64v-128h-64v128h-64
v-192h128v-128zM384 256h64v128h-64v-128zM192 384h64v64h-64v-64zM128 640v64h-64v-64h64zM64 704v64h-64v-64h64z" />
    <glyph glyph-name="uniFBF4" unicode="&#xfbf4;" horiz-adv-x="512" arabic-form="isolated" 
d="M512 512v64h-128v-64h-64v-64h64v64h128zM512 640v64h-128v-64h-64v-64h64v64h128zM192 0h-128v-64h128v64zM192 0h64v64h-64v-64zM256 64h64v128h64v64h-64v128h-64v-128h-64v128h-64v-192h128v-128zM384 256h64v128h-64v-128zM192 384h64v64h-64v-64zM192 640v-128h64
v128h-64zM192 640v64h-64v-64h64z" />
    <glyph glyph-name="uniFBF5" unicode="&#xfbf5;" horiz-adv-x="512" arabic-form="final" 
d="M512 192v64h-64v-64h64zM512 512v64h-128v-64h-64v-64h64v64h128zM512 640v64h-128v-64h-64v-64h64v64h128zM192 0h-128v-64h128v64zM192 0h64v64h-64v-64zM256 64h64v128h64v64h-64v128h-64v-128h-64v128h-64v-192h128v-128zM384 256h64v128h-64v-128zM192 384h64v64
h-64v-64zM192 640v-128h64v128h-64zM192 640v64h-64v-64h64z" />
    <glyph glyph-name="uniFBF6" unicode="&#xfbf6;" horiz-adv-x="512" arabic-form="isolated" 
d="M256 -128v64h-64v-64h64zM256 0v64h-64v-64h64zM384 192v64h-64v-64h-192v-64h192v64h64zM384 640v64h-128v-64h-64v-64h64v64h128zM384 768v64h-128v-64h-64v-64h64v64h128zM128 192v192h-64v-192h64zM320 256v64h-64v-64h64zM256 320v64h-64v-64h64zM256 384h128v192
h-64v-128h-64v-64z" />
    <glyph glyph-name="uniFBF7" unicode="&#xfbf7;" horiz-adv-x="512" arabic-form="final" 
d="M256 -128v64h-64v-64h64zM256 0v64h-64v-64h64zM320 192v64h-64v-64h-128v-64h128v64h64zM512 192v64h-64v-64h64zM384 576v64h-128v-64h-64v-64h64v64h128zM384 704v64h-128v-64h-64v-64h64v64h128zM128 192v192h-64v-192h64zM256 256v64h-64v-64h64zM448 256v64h-64
v-64h64zM256 320h128v128h-64v-64h-64v-64z" />
    <glyph glyph-name="uniFBF8" unicode="&#xfbf8;" horiz-adv-x="512" arabic-form="initial" 
d="M192 -64v64h-64v-64h64zM192 64v64h-64v-64h64zM448 576v64h-128v-64h-64v-64h64v64h128zM448 704v64h-128v-64h-64v-64h64v64h128zM192 256h-192v-64h192v64zM192 256h64v-64h128v64h-128v64h-64v-64zM384 256h64v192h-64v-192zM192 320v128h-64v-128h64z" />
    <glyph glyph-name="uniFBF9" unicode="&#xfbf9;" horiz-adv-x="512" arabic-form="isolated" 
d="M448 576v64h-128v-64h-64v-64h64v64h128zM448 704v64h-128v-64h-64v-64h64v64h128zM128 0v-64h256v64h-256zM128 0v256h-64v-256h64zM384 0h64v128h-64v-128zM384 128v64h-64v-64h64zM320 192v64h-64v-64h64zM320 256h128v256h-64v-192h-64v-64z" />
    <glyph glyph-name="uniFBFA" unicode="&#xfbfa;" horiz-adv-x="512" arabic-form="final" 
d="M512 256v64h-64v-64h64zM448 576v64h-128v-64h-64v-64h64v64h128zM448 704v64h-128v-64h-64v-64h64v64h128zM128 0v-64h256v64h-256zM128 0v256h-64v-256h64zM384 0h64v128h-64v-128zM384 128v64h-64v-64h64zM320 192v64h-64v-64h64zM320 256h64v64h-64v-64zM384 320h64
v128h-64v-128z" />
    <glyph glyph-name="uniFBFB" unicode="&#xfbfb;" horiz-adv-x="512" arabic-form="initial" 
d="M448 576v64h-128v-64h-64v-64h64v64h128zM448 704v64h-128v-64h-64v-64h64v64h128zM192 256h-192v-64h192v64zM192 256h64v-64h128v64h-128v64h-64v-64zM384 256h64v192h-64v-192zM192 320v128h-64v-128h64z" />
    <glyph glyph-name="uniFBFC" unicode="&#x6cc;" horiz-adv-x="512" arabic-form="isolated" 
d="M448 256v64h-64v-64h64zM128 0v-64h256v64h-256zM128 0v320h-64v-320h64zM384 0h64v128h-64v-128zM384 128v64h-64v-64h64zM320 192v128h-64v-128h64zM320 320h64v64h-64v-64z" />
    <glyph glyph-name="uniFBFD" unicode="&#x6cc;" horiz-adv-x="512" arabic-form="final" 
d="M512 192v64h-128v-64h-64v-64h64v-128h-256v-64h256v64h64v128h-64v64h128zM128 0v256h-64v-256h64z" />
    <glyph glyph-name="uniFBFE" unicode="&#x6cc;" horiz-adv-x="512" arabic-form="initial" 
d="M192 64v64h-64v-64h64zM320 64v64h-64v-64h64zM384 256v64h-64v-64h-320v-64h320v64h64zM320 320v128h-64v-128h64z" />
    <glyph glyph-name="uniFBFF" unicode="&#x6cc;" horiz-adv-x="512" arabic-form="medial" 
d="M192 64v64h-64v-64h64zM320 64v64h-64v-64h64zM512 192v64h-128v-64h128zM320 256h-320v-64h320v64zM320 256h64v64h-64v-64zM320 320v128h-64v-128h64z" />
    <glyph glyph-name="uniFC00" unicode="&#xfc00;" horiz-adv-x="512" arabic-form="isolated" 
d="M448 -64v64h-64v-64h-192v-64h192v64h64zM320 64v64h-64v-64h64zM448 256v64h-320v64h-64v-128h64v-64h-64v-192h64v-64h64v64h-64v192h64v64h256zM384 448v64h-128v-64h-128v-64h128v64h128zM192 512v64h-128v-64h-64v-64h64v64h128zM192 640v64h-128v-64h-64v-64h64v64
h128z" />
    <glyph glyph-name="uniFC01" unicode="&#xfc01;" horiz-adv-x="512" arabic-form="isolated" 
d="M448 -64v64h-64v-64h-192v-64h192v64h64zM448 256v64h-320v64h-64v-128h64v-64h-64v-192h64v-64h64v64h-64v192h64v64h256zM384 448v64h-128v-64h-128v-64h128v64h128zM192 512v64h-128v-64h-64v-64h64v64h128zM192 640v64h-128v-64h-64v-64h64v64h128z" />
    <glyph glyph-name="uniFC02" unicode="&#xfc02;" horiz-adv-x="512" arabic-form="isolated" 
d="M384 192v64h-64v128h-64v-128h-128v-64h-64v-320h64v320h256zM512 448v64h-128v-64h-64v-64h64v64h128zM320 512v64h-128v-64h-64v-64h64v64h128zM320 640v64h-128v-64h-64v-64h64v64h128z" />
    <glyph glyph-name="uniFC03" unicode="&#xfc03;" horiz-adv-x="512" arabic-form="isolated" 
d="M192 256v64h-64v-64h-64v-128h64v-64h64v-64h192v64h-192v64h-64v128h64zM256 512v64h-128v-64h-64v-64h64v64h128zM256 640v64h-128v-64h-64v-64h64v64h128zM384 64h64v128h-64v64h-64v-128h64v-64zM384 256h64v192h-64v-192zM384 448v64h-64v-64h64z" />
    <glyph glyph-name="uniFC04" unicode="&#xfc04;" horiz-adv-x="512" arabic-form="isolated" 
d="M256 -128v64h-64v-64h64zM384 -128v64h-64v-64h64zM192 256v64h-64v-64h-64v-128h64v-64h64v-64h192v64h-192v64h-64v128h64zM256 512v64h-128v-64h-64v-64h64v64h128zM256 640v64h-128v-64h-64v-64h64v64h128zM384 64h64v128h-64v64h-64v-128h64v-64zM384 256h64v192
h-64v-192zM384 448v64h-64v-64h64z" />
    <glyph glyph-name="uniFC05" unicode="&#xfc05;" horiz-adv-x="512" arabic-form="isolated" 
d="M448 -64v64h-64v-64h-192v-64h192v64h64zM320 64v64h-64v-64h64zM448 128v64h-64v-64h64zM448 256v64h-320v64h-64v-128h64v-64h-64v-192h64v-64h64v64h-64v192h64v64h256zM384 448v64h-128v-64h-128v-64h128v64h128z" />
    <glyph glyph-name="uniFC06" unicode="&#xfc06;" horiz-adv-x="512" arabic-form="isolated" 
d="M448 -64v64h-64v-64h-192v-64h192v64h64zM448 128v64h-64v-64h64zM448 256v64h-320v64h-64v-128h64v-64h-64v-192h64v-64h64v64h-64v192h64v64h256zM384 448v64h-128v-64h-128v-64h128v64h128z" />
    <glyph glyph-name="uniFC07" unicode="&#xfc07;" horiz-adv-x="512" arabic-form="isolated" 
d="M448 -64v64h-64v-64h-192v-64h192v64h64zM448 128v64h-64v-64h64zM448 256v64h-320v64h-64v-128h64v-64h-64v-192h64v-64h64v64h-64v192h64v64h256zM384 448v64h-128v-64h-128v-64h128v64h128zM192 576v64h-64v-64h64z" />
    <glyph glyph-name="uniFC08" unicode="&#xfc08;" horiz-adv-x="512" arabic-form="isolated" 
d="M512 128v64h-64v-64h64zM384 192v64h-64v128h-64v-128h-128v-64h-64v-320h64v320h256zM512 448v64h-128v-64h-64v-64h64v64h128z" />
    <glyph glyph-name="uniFC09" unicode="&#xfc09;" horiz-adv-x="512" arabic-form="isolated" 
d="M512 -64v64h-64v-64h64zM192 256v64h-64v-64h-64v-128h64v-64h64v-64h192v64h-192v64h-64v128h64zM384 64h64v128h-64v64h-64v-128h64v-64zM384 256h64v192h-64v-192zM384 448v64h-64v-64h64z" />
    <glyph glyph-name="uniFC0A" unicode="&#xfc0a;" horiz-adv-x="512" arabic-form="isolated" 
d="M256 -128v64h-64v-64h64zM384 -128v64h-64v-64h64zM512 -64v64h-64v-64h64zM192 256v64h-64v-64h-64v-128h64v-64h64v-64h192v64h-192v64h-64v128h64zM384 64h64v128h-64v64h-64v-128h64v-64zM384 256h64v192h-64v-192zM384 448v64h-64v-64h64z" />
    <glyph glyph-name="uniFC0B" unicode="&#xfc0b;" horiz-adv-x="512" arabic-form="isolated" 
d="M448 -64v64h-64v-64h-192v-64h192v64h64zM448 128v64h-64v-64h64zM448 256v64h-320v64h-64v-128h64v-64h-64v-192h64v-64h64v64h-64v192h64v64h256zM384 448v64h-128v-64h-128v-64h128v64h128zM192 576v64h-64v-64h64zM320 576v64h-64v-64h64z" />
    <glyph glyph-name="uniFC0C" unicode="&#xfc0c;" horiz-adv-x="512" arabic-form="isolated" 
d="M448 -64v64h-64v-64h-192v-64h192v64h64zM448 256v64h-320v64h-64v-128h64v-64h-64v-192h64v-64h64v64h-64v192h64v64h256zM384 448v64h-128v-64h-128v-64h128v64h128zM192 576v64h-64v-64h64zM320 576v64h-64v-64h64z" />
    <glyph glyph-name="uniFC0D" unicode="&#xfc0d;" horiz-adv-x="512" arabic-form="isolated" 
d="M448 -64v64h-64v-64h-192v-64h192v64h64zM448 256v64h-320v64h-64v-128h64v-64h-64v-192h64v-64h64v64h-64v192h64v64h256zM64 448v64h-64v-64h64zM384 448v64h-128v-64h-128v-64h128v64h128zM192 576v64h-64v-64h64zM320 576v64h-64v-64h64z" />
    <glyph glyph-name="uniFC0E" unicode="&#xfc0e;" horiz-adv-x="512" arabic-form="isolated" 
d="M384 192v64h-64v128h-64v-128h-128v-64h-64v-320h64v320h256zM512 448v64h-128v-64h-64v-64h64v64h128zM384 640v64h-64v-64h64zM512 640v64h-64v-64h64z" />
    <glyph glyph-name="uniFC0F" unicode="&#xfc0f;" horiz-adv-x="512" arabic-form="isolated" 
d="M192 256v64h-64v-64h-64v-128h64v-64h64v-64h192v64h-192v64h-64v128h64zM256 576v64h-64v-64h64zM384 576v64h-64v-64h64zM384 64h64v128h-64v64h-64v-128h64v-64zM384 256h64v192h-64v-192zM384 448v64h-64v-64h64z" />
    <glyph glyph-name="uniFC10" unicode="&#xfc10;" horiz-adv-x="512" arabic-form="isolated" 
d="M256 -128v64h-64v-64h64zM384 -128v64h-64v-64h64zM192 256v64h-64v-64h-64v-128h64v-64h64v-64h192v64h-192v64h-64v128h64zM256 576v64h-64v-64h64zM384 576v64h-64v-64h64zM384 64h64v128h-64v64h-64v-128h64v-64zM384 256h64v192h-64v-192zM384 448v64h-64v-64h64z
" />
    <glyph glyph-name="uniFC11" unicode="&#xfc11;" horiz-adv-x="512" arabic-form="isolated" 
d="M448 -64v64h-64v-64h-192v-64h192v64h64zM320 64v64h-64v-64h64zM448 256v64h-320v64h-64v-128h64v-64h-64v-192h64v-64h64v64h-64v192h64v64h256zM384 448v64h-128v-64h-128v-64h128v64h128zM64 512v64h-64v-64h64zM192 512v64h-64v-64h64zM128 640v64h-64v-64h64z" />
    <glyph glyph-name="uniFC12" unicode="&#xfc12;" horiz-adv-x="512" arabic-form="isolated" 
d="M384 192v64h-64v128h-64v-128h-128v-64h-64v-320h64v320h256zM512 448v64h-128v-64h-64v-64h64v64h128zM192 512v64h-64v-64h64zM320 512v64h-64v-64h64zM256 640v64h-64v-64h64z" />
    <glyph glyph-name="uniFC13" unicode="&#xfc13;" horiz-adv-x="512" arabic-form="isolated" 
d="M192 256v64h-64v-64h-64v-128h64v-64h64v-64h192v64h-192v64h-64v128h64zM128 512v64h-64v-64h64zM256 512v64h-64v-64h64zM192 640v64h-64v-64h64zM384 64h64v128h-64v64h-64v-128h64v-64zM384 256h64v192h-64v-192zM384 448v64h-64v-64h64z" />
    <glyph glyph-name="uniFC14" unicode="&#xfc14;" horiz-adv-x="512" arabic-form="isolated" 
d="M256 -128v64h-64v-64h64zM384 -128v64h-64v-64h64zM192 256v64h-64v-64h-64v-128h64v-64h64v-64h192v64h-192v64h-64v128h64zM128 512v64h-64v-64h64zM256 512v64h-64v-64h64zM192 640v64h-64v-64h64zM384 64h64v128h-64v64h-64v-128h64v-64zM384 256h64v192h-64v-192z
M384 448v64h-64v-64h64z" />
    <glyph glyph-name="uniFC15" unicode="&#xfc15;" horiz-adv-x="512" arabic-form="isolated" 
d="M448 -64v64h-64v-64h-192v-64h192v64h64zM448 192v64h-64v-64h64zM320 256v64h-192v64h-64v-128h64v-64h-64v-192h64v-64h64v64h-64v192h64v64h128zM448 512v64h-64v-64h-128v-64h-128v-64h128v64h128v64h64zM384 576v64h-128v-64h128zM256 640v64h-192v-64h192z" />
    <glyph glyph-name="uniFC16" unicode="&#xfc16;" horiz-adv-x="512" arabic-form="isolated" 
d="M512 128v64h-64v-64h64zM384 192v64h-64v128h-64v-128h-128v-64h-64v-320h64v320h256zM512 448v64h-64v64h-64v-128h-64v-64h64v64h128zM384 576v64h-128v-64h128zM256 640v64h-128v-64h128z" />
    <glyph glyph-name="uniFC17" unicode="&#xfc17;" horiz-adv-x="512" arabic-form="isolated" 
d="M448 -64v64h-64v-64h-192v-64h192v64h64zM448 128v64h-64v-64h64zM448 256v64h-320v64h-64v-128h64v-64h-64v-192h64v-64h64v64h-64v192h64v64h256zM448 512v64h-64v-64h-128v-64h-128v-64h128v64h128v64h64zM384 576v64h-128v-64h128zM256 640v64h-192v-64h192z" />
    <glyph glyph-name="uniFC18" unicode="&#xfc18;" horiz-adv-x="512" arabic-form="isolated" 
d="M384 192v64h-64v128h-64v-128h-128v-64h-64v-320h64v320h256zM512 448v64h-64v64h-64v-128h-64v-64h64v64h128zM384 576v64h-128v-64h128zM256 640v64h-128v-64h128z" />
    <glyph glyph-name="uniFC19" unicode="&#xfc19;" horiz-adv-x="512" arabic-form="isolated" 
d="M448 -64v64h-64v-64h-192v-64h192v64h64zM320 64v64h-64v-64h64zM448 256v64h-320v64h-64v-128h64v-64h-64v-192h64v-64h64v64h-64v192h64v64h256zM448 512v64h-64v-64h-128v-64h-128v-64h128v64h128v64h64zM384 704v64h-64v-64h64zM384 576v64h-128v-64h128zM256 640v64
h-192v-64h192z" />
    <glyph glyph-name="uniFC1A" unicode="&#xfc1a;" horiz-adv-x="512" arabic-form="isolated" 
d="M448 -64v64h-64v-64h-192v-64h192v64h64zM448 256v64h-320v64h-64v-128h64v-64h-64v-192h64v-64h64v64h-64v192h64v64h256zM448 512v64h-64v-64h-128v-64h-128v-64h128v64h128v64h64zM384 704v64h-64v-64h64zM384 576v64h-128v-64h128zM256 640v64h-192v-64h192z" />
    <glyph glyph-name="uniFC1B" unicode="&#xfc1b;" horiz-adv-x="512" arabic-form="isolated" 
d="M384 192v64h-64v128h-64v-128h-128v-64h-64v-320h64v320h256zM512 448v64h-64v64h-64v-128h-64v-64h64v64h128zM512 640v64h-64v-64h64zM384 576v64h-128v-64h128zM256 640v64h-128v-64h128z" />
    <glyph glyph-name="uniFC1C" unicode="&#xfc1c;" horiz-adv-x="512" arabic-form="isolated" 
d="M448 -64v64h-64v-64h-192v-64h192v64h64zM448 128v64h-64v-64h64zM448 256v64h-320v128h-64v-192h64v-64h-64v-192h64v-64h64v64h-64v192h64v64h256zM512 448v64h-64v-64h-64v-64h64v64h64zM128 448h64v-64h128v64h-128v64h-64v-64zM320 448h64v64h-64v-64z" />
    <glyph glyph-name="uniFC1D" unicode="&#xfc1d;" horiz-adv-x="512" arabic-form="isolated" 
d="M448 -64v64h-64v-64h-192v-64h192v64h64zM448 256v64h-320v128h-64v-192h64v-64h-64v-192h64v-64h64v64h-64v192h64v64h256zM512 448v64h-64v-64h-64v-64h64v64h64zM128 448h64v-64h128v64h-128v64h-64v-64zM320 448h64v64h-64v-64z" />
    <glyph glyph-name="uniFC1E" unicode="&#xfc1e;" horiz-adv-x="512" arabic-form="isolated" 
d="M448 -64v64h-64v-64h-192v-64h192v64h64zM448 256v64h-320v128h-64v-192h64v-64h-64v-192h64v-64h64v64h-64v192h64v64h256zM512 448v64h-64v-64h-64v-64h64v64h64zM128 576v64h-64v-64h64zM128 448h64v-64h128v64h-128v64h-64v-64zM320 448h64v64h-64v-64z" />
    <glyph glyph-name="uniFC1F" unicode="&#xfc1f;" arabic-form="isolated" 
d="M448 192v64h-64v128h-64v-128h-128v-64h-64v-320h64v320h256zM896 448v64h-64v-64h-64v-64h64v64h64zM384 384h64v64h-64v-64zM448 448h128v-64h128v64h-128v64h-128v-64zM704 448h64v64h-64v-64z" />
    <glyph glyph-name="uniFC20" unicode="&#xfc20;" horiz-adv-x="512" arabic-form="isolated" 
d="M448 -64v64h-64v-64h-192v-64h192v64h64zM448 256v64h-320v64h-64v-128h64v-64h-64v-192h64v-64h64v64h-64v192h64v64h256zM512 512v64h-64v-64h-128v64h-64v-64h-64v-64h-64v-64h64v64h64v-64h64v64h128v64h64zM320 576h128v64h-128v-64z" />
    <glyph glyph-name="uniFC21" unicode="&#xfc21;" arabic-form="isolated" 
d="M448 192v64h-64v128h-64v-128h-128v-64h-64v-320h64v320h256zM896 512v64h-64v-64h-192v64h-64v-64h-128v-64h-64v-64h64v64h128v-64h64v64h192v64h64zM640 576h192v64h-192v-64z" />
    <glyph glyph-name="uniFC22" unicode="&#xfc22;" horiz-adv-x="512" arabic-form="isolated" 
d="M448 -64v64h-64v-64h-192v-64h192v64h64zM320 64v64h-64v-64h64zM448 256v64h-320v64h-64v-128h64v-64h-64v-192h64v-64h64v64h-64v192h64v64h256zM512 512v64h-64v-64h-128v64h-64v-64h-64v-64h-64v-64h64v64h64v-64h64v64h128v64h64zM192 576v64h-64v-64h64zM320 576
h128v64h-128v-64z" />
    <glyph glyph-name="uniFC23" unicode="&#xfc23;" horiz-adv-x="512" arabic-form="isolated" 
d="M448 -64v64h-64v-64h-192v-64h192v64h64zM448 256v64h-320v64h-64v-128h64v-64h-64v-192h64v-64h64v64h-64v192h64v64h256zM512 512v64h-64v-64h-128v64h-64v-64h-64v-64h-64v-64h64v64h64v-64h64v64h128v64h64zM192 576v64h-64v-64h64zM320 576h128v64h-128v-64z" />
    <glyph glyph-name="uniFC24" unicode="&#xfc24;" horiz-adv-x="512" arabic-form="isolated" 
d="M448 -64v64h-64v-64h-192v-64h192v64h64zM448 256v64h-320v64h-64v-128h64v-64h-64v-192h64v-64h64v64h-64v192h64v64h256zM64 512v64h-64v-64h64zM512 512v64h-64v-64h-128v64h-64v-64h-64v-64h-64v-64h64v64h64v-64h64v64h128v64h64zM192 576v64h-64v-64h64zM320 576
h128v64h-128v-64z" />
    <glyph glyph-name="uniFC25" unicode="&#xfc25;" arabic-form="isolated" 
d="M448 192v64h-64v128h-64v-128h-128v-64h-64v-320h64v320h256zM896 512v64h-64v-64h-192v64h-64v-64h-128v-64h-64v-64h64v64h128v-64h64v64h192v64h64zM512 576v64h-64v-64h64zM640 576h192v64h-192v-64z" />
    <glyph glyph-name="uniFC26" unicode="&#xfc26;" horiz-adv-x="512" arabic-form="isolated" 
d="M448 -64v64h-64v-64h-192v-64h192v64h64zM448 256v64h-320v64h-64v-128h64v-64h-64v-192h64v-64h64v64h-64v192h64v64h256zM448 512v64h-64v-64h-128v64h-64v128h-64v-320h64v64h192v64h64zM256 576h128v64h-128v-64z" />
    <glyph glyph-name="uniFC27" unicode="&#xfc27;" horiz-adv-x="512" arabic-form="isolated" 
d="M384 192v64h-128v128h-64v-128h-64v-64h-64v-320h64v320h256zM512 384v64h-64v-64h-128v-64h128v64h64zM256 384h64v64h128v64h-128v192h-64v-320z" />
    <glyph glyph-name="uniFC28" unicode="&#xfc28;" horiz-adv-x="512" arabic-form="isolated" 
d="M384 192v64h-128v128h-64v-128h-64v-64h-64v-320h64v320h256zM512 384v64h-64v-64h-128v-64h128v64h64zM448 576v64h-64v-64h64zM256 384h64v64h128v64h-128v192h-64v-320z" />
    <glyph glyph-name="uniFC29" unicode="&#xfc29;" horiz-adv-x="512" arabic-form="isolated" 
d="M448 -64v64h-64v-64h-192v-64h192v64h64zM320 64v64h-64v-64h64zM448 256v64h-320v64h-64v-128h64v-64h-64v-192h64v-64h64v64h-64v192h64v64h256zM320 512v64h-192v-64h64v-64h-64v-64h64v64h64v64h64zM256 640v64h-128v-64h-64v-64h64v64h128z" />
    <glyph glyph-name="uniFC2A" unicode="&#xfc2a;" horiz-adv-x="512" arabic-form="isolated" 
d="M384 192v64h-64v128h-64v-128h-128v-64h-64v-320h64v320h256zM512 448v64h-256v-64h64v-64h64v64h128zM384 576v64h-128v-64h-64v-64h64v64h128z" />
    <glyph glyph-name="uniFC2B" unicode="&#xfc2b;" horiz-adv-x="512" arabic-form="isolated" 
d="M448 -64v64h-64v-64h-192v-64h192v64h64zM320 64v64h-64v-64h64zM448 256v64h-320v64h-64v-128h64v-64h-64v-192h64v-64h64v64h-64v192h64v64h256zM320 512v64h-192v-64h64v-64h-64v-64h64v64h64v64h64zM256 640v64h-128v-64h-64v-64h64v64h128zM64 704v64h-64v-64h64z
" />
    <glyph glyph-name="uniFC2C" unicode="&#xfc2c;" horiz-adv-x="512" arabic-form="isolated" 
d="M384 192v64h-64v128h-64v-128h-128v-64h-64v-320h64v320h256zM512 448v64h-256v-64h64v-64h64v64h128zM384 576v64h-128v-64h-64v-64h64v64h128zM320 704v64h-64v-64h64z" />
    <glyph glyph-name="uniFC2D" unicode="&#xfc2d;" horiz-adv-x="512" arabic-form="isolated" 
d="M512 -64v64h-64v-64h-256v-64h256v64h64zM320 64v64h-64v-64h64zM448 320v64h-256v64h-64v-64h-64v-64h128v-64h-64v-64h-64v-192h64v-64h64v64h-64v192h64v64h64v64h192zM64 704v64h-64v-64h64zM192 448h64v192h-64v-64h-64v-64h64v-64zM128 576v64h-64v-64h64zM128 640
h64v64h-64v-64z" />
    <glyph glyph-name="uniFC2E" unicode="&#xfc2e;" horiz-adv-x="512" arabic-form="isolated" 
d="M512 -64v64h-64v-64h-256v-64h256v64h64zM448 320v64h-256v64h-64v-64h-64v-64h128v-64h-64v-64h-64v-192h64v-64h64v64h-64v192h64v64h64v64h192zM64 704v64h-64v-64h64zM192 448h64v192h-64v-64h-64v-64h64v-64zM128 576v64h-64v-64h64zM128 640h64v64h-64v-64z" />
    <glyph glyph-name="uniFC2F" unicode="&#xfc2f;" horiz-adv-x="512" arabic-form="isolated" 
d="M512 -64v64h-64v-64h-256v-64h256v64h64zM448 320v64h-256v64h-64v-64h-64v-64h128v-64h-64v-64h-64v-192h64v-64h64v64h-64v192h64v64h64v64h192zM64 448v64h-64v-64h64zM64 704v64h-64v-64h64zM192 448h64v192h-64v-64h-64v-64h64v-64zM128 576v64h-64v-64h64zM128 640
h64v64h-64v-64z" />
    <glyph glyph-name="uniFC30" unicode="&#xfc30;" horiz-adv-x="512" arabic-form="isolated" 
d="M320 128v64h-64v64h-64v-64h-64v-64h-64v-256h64v256h192zM128 640v64h-64v-64h64zM192 256v64h-64v-64h64zM192 320h64v64h-64v-64zM256 384h64v192h-64v-64h-64v-64h64v-64zM192 512v64h-64v-64h64zM192 576h64v64h-64v-64z" />
    <glyph glyph-name="uniFC31" unicode="&#xfc31;" horiz-adv-x="512" arabic-form="isolated" 
d="M448 64v64h-64v-64h-256v-64h256v64h64zM384 704v64h-64v-64h64zM128 64v256h-64v-256h64zM384 128v64h-64v-64h64zM320 192v64h-64v-64h64zM320 256h128v256h-64v-64h-64v-64h64v-64h-64v-64zM320 448v64h64v64h-128v-128h64z" />
    <glyph glyph-name="uniFC32" unicode="&#xfc32;" horiz-adv-x="512" arabic-form="isolated" 
d="M192 -128v64h-64v-64h64zM320 -128v64h-64v-64h64zM448 64v64h-64v-64h-256v-64h256v64h64zM384 704v64h-64v-64h64zM128 64v256h-64v-256h64zM384 128v64h-64v-64h64zM320 192v64h-64v-64h64zM320 256h128v256h-64v-64h-64v-64h64v-64h-64v-64zM320 448v64h64v64h-128
v-128h64z" />
    <glyph glyph-name="uniFC33" unicode="&#xfc33;" horiz-adv-x="512" arabic-form="isolated" 
d="M448 -64v64h-64v-64h-192v-64h192v64h64zM448 256v64h-320v64h-64v-128h64v-64h-64v-192h64v-64h64v64h-64v192h64v64h256zM128 640v64h-64v-64h64zM256 640v64h-64v-64h64zM128 384h128v128h-64v-64h-64v-64zM128 448v64h-64v-64h64zM128 512h64v64h-64v-64z" />
    <glyph glyph-name="uniFC34" unicode="&#xfc34;" horiz-adv-x="512" arabic-form="isolated" 
d="M320 128v64h-64v64h-64v-64h-64v-64h-64v-256h64v256h192zM192 704v64h-64v-64h64zM320 704v64h-64v-64h64zM192 256v64h-64v-64h64zM192 320h64v64h-64v-64zM256 384h64v192h-64v-64h-64v-64h64v-64zM192 512v64h-64v-64h64zM192 576h64v64h-64v-64z" />
    <glyph glyph-name="uniFC35" unicode="&#xfc35;" horiz-adv-x="512" arabic-form="isolated" 
d="M448 64v64h-64v-64h-256v-64h256v64h64zM256 704v64h-64v-64h64zM384 704v64h-64v-64h64zM128 64v256h-64v-256h64zM384 128v64h-64v-64h64zM320 192v64h-64v-64h64zM320 256h128v256h-64v-64h-64v-64h64v-64h-64v-64zM320 448v64h64v64h-128v-128h64z" />
    <glyph glyph-name="uniFC36" unicode="&#xfc36;" horiz-adv-x="512" arabic-form="isolated" 
d="M192 -128v64h-64v-64h64zM320 -128v64h-64v-64h64zM448 64v64h-64v-64h-256v-64h256v64h64zM256 704v64h-64v-64h64zM384 704v64h-64v-64h64zM128 64v256h-64v-256h64zM384 128v64h-64v-64h64zM320 192v64h-64v-64h64zM320 256h128v256h-64v-64h-64v-64h64v-64h-64v-64z
M320 448v64h64v64h-128v-128h64z" />
    <glyph glyph-name="uniFC37" unicode="&#xfc37;" horiz-adv-x="512" arabic-form="isolated" 
d="M448 256v64h-64v-64h-320v-64h320v64h64zM384 640v64h-64v-64h-64v-64h-64v-64h-64v-64h-64v192h-64v-384h64v128h64v-64h256v64h-256v64h64v64h64v64h64v64h64z" />
    <glyph glyph-name="uniFC38" unicode="&#xfc38;" horiz-adv-x="512" arabic-form="isolated" 
d="M448 -64v64h-64v-64h-192v-64h192v64h64zM320 64v64h-64v-64h64zM448 256v64h-256v64h-64v-64h-64v-64h64v-64h-64v-192h64v-64h64v64h-64v192h64v64h256zM256 384v64h-64v-64h64zM320 576v64h-64v-64h-64v-64h-64v-64h64v64h64v64h64z" />
    <glyph glyph-name="uniFC39" unicode="&#xfc39;" horiz-adv-x="512" arabic-form="isolated" 
d="M448 -64v64h-64v-64h-192v-64h192v64h64zM448 256v64h-256v64h-64v-64h-64v-64h64v-64h-64v-192h64v-64h64v64h-64v192h64v64h256zM256 384v64h-64v-64h64zM320 576v64h-64v-64h-64v-64h-64v-64h64v64h64v64h64z" />
    <glyph glyph-name="uniFC3A" unicode="&#xfc3a;" horiz-adv-x="512" arabic-form="isolated" 
d="M448 -64v64h-64v-64h-192v-64h192v64h64zM448 256v64h-256v64h-64v-64h-64v-64h64v-64h-64v-192h64v-64h64v64h-64v192h64v64h256zM64 384v64h-64v-64h64zM256 384v64h-64v-64h64zM320 576v64h-64v-64h-64v-64h-64v-64h64v64h64v64h64z" />
    <glyph glyph-name="uniFC3B" unicode="&#xfc3b;" horiz-adv-x="512" arabic-form="isolated" 
d="M448 256v64h-64v-64h-128v128h64v-64h64v64h-64v64h-64v256h-64v-768h-128v-64h128v64h64v256h128v64h64zM448 512v64h-64v-64h-64v-64h64v64h64zM64 -64v256h-64v-256h64z" />
    <glyph glyph-name="uniFC3C" unicode="&#xfc3c;" horiz-adv-x="512" arabic-form="isolated" 
d="M384 192v64h-128v64h-64v-64h-64v-64h-64v-320h64v320h256zM320 320v64h-64v-64h64zM384 640v64h-64v-64h-64v-64h-64v-64h-64v-64h64v-64h64v64h-64v64h64v64h64v64h64z" />
    <glyph glyph-name="uniFC3D" unicode="&#xfc3d;" arabic-form="isolated" 
d="M320 256v64h-64v-64h-64v-128h64v-64h64v-64h192v64h-192v64h-64v128h64zM640 320v64h-64v-64h-64v-64h-64v-128h64v-64h64v128h-64v64h64v64h64zM768 640v64h-64v-64h-64v-64h-64v-64h-64v-128h64v128h64v64h64v64h64z" />
    <glyph glyph-name="uniFC3E" unicode="&#xfc3e;" arabic-form="isolated" 
d="M384 -128v64h-64v-64h64zM512 -128v64h-64v-64h64zM320 256v64h-64v-64h-64v-128h64v-64h64v-64h192v64h-192v64h-64v128h64zM640 320v64h-64v-64h-64v-64h-64v-128h64v-64h64v128h-64v64h64v64h64zM768 640v64h-64v-64h-64v-64h-64v-64h-64v-128h64v128h64v64h64v64h64z
" />
    <glyph glyph-name="uniFC3F" unicode="&#xfc3f;" horiz-adv-x="512" arabic-form="isolated" 
d="M512 -64v64h-64v-64h-256v-64h256v64h64zM320 64v64h-64v-64h64zM448 320v64h-256v64h-64v-64h-64v-64h128v-64h-64v-64h-64v-192h64v-64h64v64h-64v192h64v64h64v64h192zM192 448h64v320h-64v-320z" />
    <glyph glyph-name="uniFC40" unicode="&#xfc40;" horiz-adv-x="512" arabic-form="isolated" 
d="M512 -64v64h-64v-64h-256v-64h256v64h64zM448 320v64h-256v64h-64v-64h-64v-64h128v-64h-64v-64h-64v-192h64v-64h64v64h-64v192h64v64h64v64h192zM192 448h64v320h-64v-320z" />
    <glyph glyph-name="uniFC41" unicode="&#xfc41;" horiz-adv-x="512" arabic-form="isolated" 
d="M512 -64v64h-64v-64h-256v-64h256v64h64zM448 320v64h-256v64h-64v-64h-64v-64h128v-64h-64v-64h-64v-192h64v-64h64v64h-64v192h64v64h64v64h192zM128 512v64h-64v-64h64zM192 448h64v320h-64v-320z" />
    <glyph glyph-name="uniFC42" unicode="&#xfc42;" horiz-adv-x="512" arabic-form="isolated" 
d="M384 192v64h-64v448h-64v-448h-128v-64h-64v-320h64v320h256z" />
    <glyph glyph-name="uniFC43" unicode="&#xfc43;" horiz-adv-x="512" arabic-form="isolated" 
d="M128 0v-64h256v64h-256zM128 0v256h-64v-256h64zM384 0h64v128h-64v-128zM384 128v64h-64v-64h64zM320 192v64h-64v-64h64zM320 256h128v448h-64v-384h-64v-64z" />
    <glyph glyph-name="uniFC44" unicode="&#xfc44;" horiz-adv-x="512" arabic-form="isolated" 
d="M192 -128v64h-64v-64h64zM320 -128v64h-64v-64h64zM448 64v64h-64v-64h-256v-64h256v64h64zM128 64v192h-64v-192h64zM384 128v64h-64v-64h64zM320 192v64h-64v-64h64zM320 256h128v448h-64v-384h-64v-64z" />
    <glyph glyph-name="uniFC45" unicode="&#xfc45;" horiz-adv-x="512" arabic-form="isolated" 
d="M448 -64v64h-64v-64h-192v-64h192v64h64zM320 64v64h-64v-64h64zM448 256v64h-320v64h-64v-128h64v-64h-64v-192h64v-64h64v64h-64v192h64v64h256zM384 448v64h-128v-64h-128v-64h128v64h128z" />
    <glyph glyph-name="uniFC46" unicode="&#xfc46;" horiz-adv-x="512" arabic-form="isolated" 
d="M448 -64v64h-64v-64h-192v-64h192v64h64zM448 256v64h-320v64h-64v-128h64v-64h-64v-192h64v-64h64v64h-64v192h64v64h256zM384 448v64h-128v-64h-128v-64h128v64h128z" />
    <glyph glyph-name="uniFC47" unicode="&#xfc47;" horiz-adv-x="512" arabic-form="isolated" 
d="M448 -64v64h-64v-64h-192v-64h192v64h64zM448 256v64h-320v64h-64v-128h64v-64h-64v-192h64v-64h64v64h-64v192h64v64h256zM384 448v64h-128v-64h-128v-64h128v64h128zM192 512v64h-64v-64h64z" />
    <glyph glyph-name="uniFC48" unicode="&#xfc48;" horiz-adv-x="512" arabic-form="isolated" 
d="M384 192v64h-64v128h-64v-128h-128v-64h-64v-320h64v320h256zM512 448v64h-128v-64h-64v-64h64v64h128z" />
    <glyph glyph-name="uniFC49" unicode="&#xfc49;" horiz-adv-x="512" arabic-form="isolated" 
d="M128 64v-64h256v64h-256zM128 64v192h-64v-192h64zM384 64h64v128h-64v-128zM384 192v64h-64v-64h64zM320 256v64h-64v-64h64zM320 320h64v64h-64v-64zM384 384h64v128h-64v-128z" />
    <glyph glyph-name="uniFC4A" unicode="&#xfc4a;" horiz-adv-x="512" arabic-form="isolated" 
d="M192 -128v64h-64v-64h64zM320 -128v64h-64v-64h64zM128 64v-64h256v64h-256zM128 64v192h-64v-192h64zM384 64h64v128h-64v-128zM384 192v64h-64v-64h64zM320 256v64h-64v-64h64zM320 320h64v64h-64v-64zM384 384h64v128h-64v-128z" />
    <glyph glyph-name="uniFC4B" unicode="&#xfc4b;" horiz-adv-x="512" arabic-form="isolated" 
d="M448 -64v64h-64v-64h-192v-64h192v64h64zM320 64v64h-64v-64h64zM448 256v64h-320v64h-64v-128h64v-64h-64v-192h64v-64h64v64h-64v192h64v64h256zM384 448v64h-128v-64h-128v-64h128v64h128zM320 576v64h-64v-64h64z" />
    <glyph glyph-name="uniFC4C" unicode="&#xfc4c;" horiz-adv-x="512" arabic-form="isolated" 
d="M448 -64v64h-64v-64h-192v-64h192v64h64zM448 256v64h-320v64h-64v-128h64v-64h-64v-192h64v-64h64v64h-64v192h64v64h256zM384 448v64h-128v-64h-128v-64h128v64h128zM320 576v64h-64v-64h64z" />
    <glyph glyph-name="uniFC4D" unicode="&#xfc4d;" horiz-adv-x="512" arabic-form="isolated" 
d="M448 -64v64h-64v-64h-192v-64h192v64h64zM448 256v64h-320v64h-64v-128h64v-64h-64v-192h64v-64h64v64h-64v192h64v64h256zM384 448v64h-128v-64h-128v-64h128v64h128zM192 512v64h-64v-64h64zM320 576v64h-64v-64h64z" />
    <glyph glyph-name="uniFC4E" unicode="&#xfc4e;" horiz-adv-x="512" arabic-form="isolated" 
d="M384 192v64h-64v128h-64v-128h-128v-64h-64v-320h64v320h256zM512 448v64h-128v-64h-64v-64h64v64h128zM448 640v64h-64v-64h64z" />
    <glyph glyph-name="uniFC4F" unicode="&#xfc4f;" horiz-adv-x="512" arabic-form="isolated" 
d="M192 256v64h-64v-64h-64v-128h64v-64h64v-64h192v64h-192v64h-64v128h64zM320 576v64h-64v-64h64zM384 64h64v128h-64v64h-64v-128h64v-64zM384 256h64v192h-64v-192zM384 448v64h-64v-64h64z" />
    <glyph glyph-name="uniFC50" unicode="&#xfc50;" horiz-adv-x="512" arabic-form="isolated" 
d="M256 -128v64h-64v-64h64zM384 -128v64h-64v-64h64zM192 256v64h-64v-64h-64v-128h64v-64h64v-64h192v64h-192v64h-64v128h64zM320 576v64h-64v-64h64zM384 64h64v128h-64v64h-64v-128h64v-64zM384 256h64v192h-64v-192zM384 448v64h-64v-64h64z" />
    <glyph glyph-name="uniFC51" unicode="&#xfc51;" horiz-adv-x="512" arabic-form="isolated" 
d="M448 -64v64h-64v-64h-192v-64h192v64h64zM320 64v64h-64v-64h64zM448 256v64h-320v64h-64v-128h64v-64h-64v-192h64v-64h64v64h-64v192h64v64h256zM448 448v64h-64v-64h-128v128h64v-64h64v64h-64v64h-64v64h-64v-64h-64v-64h-64v-128h64v-64h256v64h64zM128 448v128h64
v-128h-64z" />
    <glyph glyph-name="uniFC52" unicode="&#xfc52;" horiz-adv-x="512" arabic-form="isolated" 
d="M384 192v64h-128v64h-64v-64h-64v-64h-64v-320h64v320h256zM256 320h64v128h-64v128h64v-128h64v128h-64v64h-128v-64h-64v-64h-64v-64h64v-64h128v-64zM128 448v64h64v-64h-64zM192 640v64h-64v-64h64z" />
    <glyph glyph-name="uniFC53" unicode="&#xfc53;" horiz-adv-x="512" arabic-form="isolated" 
d="M192 256v64h-64v-64h-64v-128h64v-64h64v-64h192v64h-192v64h-64v128h64zM384 64h64v128h-64v64h-64v-128h64v-64zM384 256h64v192h-64v128h64v-128h64v128h-64v64h-128v-64h-64v-64h-64v-64h64v-64h128v-128zM256 448v64h64v-64h-64z" />
    <glyph glyph-name="uniFC54" unicode="&#xfc54;" horiz-adv-x="512" arabic-form="isolated" 
d="M256 -128v64h-64v-64h64zM384 -128v64h-64v-64h64zM192 256v64h-64v-64h-64v-128h64v-64h64v-64h192v64h-192v64h-64v128h64zM384 64h64v128h-64v64h-64v-128h64v-64zM384 256h64v192h-64v128h64v-128h64v128h-64v64h-128v-64h-64v-64h-64v-64h64v-64h128v-128zM256 448
v64h64v-64h-64z" />
    <glyph glyph-name="uniFC55" unicode="&#xfc55;" horiz-adv-x="512" arabic-form="isolated" 
d="M448 -64v64h-64v-64h-192v-64h192v64h64zM320 0v64h-64v-64h64zM320 128v64h-64v-64h64zM448 128v64h-64v-64h64zM448 256v64h-320v64h-64v-128h64v-64h-64v-192h64v-64h64v64h-64v192h64v64h256zM384 448v64h-128v-64h-128v-64h128v64h128z" />
    <glyph glyph-name="uniFC56" unicode="&#xfc56;" horiz-adv-x="512" arabic-form="isolated" 
d="M448 -64v64h-64v-64h-192v-64h192v64h64zM320 128v64h-64v-64h64zM448 128v64h-64v-64h64zM448 256v64h-320v64h-64v-128h64v-64h-64v-192h64v-64h64v64h-64v192h64v64h256zM384 448v64h-128v-64h-128v-64h128v64h128z" />
    <glyph glyph-name="uniFC57" unicode="&#xfc57;" horiz-adv-x="512" arabic-form="isolated" 
d="M448 -64v64h-64v-64h-192v-64h192v64h64zM320 128v64h-64v-64h64zM448 128v64h-64v-64h64zM448 256v64h-320v64h-64v-128h64v-64h-64v-192h64v-64h64v64h-64v192h64v64h256zM384 448v64h-128v-64h-128v-64h128v64h128zM192 512v64h-64v-64h64z" />
    <glyph glyph-name="uniFC58" unicode="&#xfc58;" horiz-adv-x="512" arabic-form="isolated" 
d="M384 64v64h-64v-64h64zM512 128v64h-64v-64h64zM384 192v64h-64v128h-64v-128h-128v-64h-64v-320h64v320h256zM512 448v64h-128v-64h-64v-64h64v64h128z" />
    <glyph glyph-name="uniFC59" unicode="&#xfc59;" horiz-adv-x="512" arabic-form="isolated" 
d="M384 -64v64h-64v-64h64zM512 0v64h-64v-64h64zM192 320v64h-64v-64h-64v-128h64v-64h64v-64h192v64h-192v64h-64v128h64zM384 128h64v128h-64v64h-64v-128h64v-64zM384 320h64v128h-64v-128zM384 448v64h-64v-64h64z" />
    <glyph glyph-name="uniFC5A" unicode="&#xfc5a;" horiz-adv-x="512" arabic-form="isolated" 
d="M128 -128v64h-64v-64h64zM256 -128v64h-64v-64h64zM384 -64v64h-64v-64h64zM512 0v64h-64v-64h64zM192 320v64h-64v-64h-64v-128h64v-64h64v-64h192v64h-192v64h-64v128h64zM384 128h64v128h-64v64h-64v-128h64v-64zM384 320h64v128h-64v-128zM384 448v64h-64v-64h64z
" />
    <glyph glyph-name="uniFC5B" unicode="&#xfc5b;" horiz-adv-x="512" arabic-form="isolated" 
d="M192 576v64h-64v-64h64zM64 320v-128h320v64h-256v64h-64zM384 256h64v128h-64v-128zM384 384v64h-64v-64h64zM320 448v64h-64v-64h64zM192 896v-192h64v192h-64z" />
    <glyph glyph-name="uniFC5C" unicode="&#xfc5c;" horiz-adv-x="512" arabic-form="isolated" 
d="M128 0v-64h128v64h-128zM128 0v64h-64v-64h64zM256 0h64v64h-64v-64zM320 64h64v64h-64v-64zM384 128h64v192h-64v-192zM384 320v64h-64v-64h64zM256 704v-256h64v256h-64z" />
    <glyph glyph-name="uniFC5D" unicode="&#xfc5d;" horiz-adv-x="512" arabic-form="isolated" 
d="M448 64v64h-64v-64h-256v-64h256v64h64zM448 256v64h-64v-64h64zM128 64v192h-64v-192h64zM384 128v64h-64v-64h64zM320 192v128h-64v-128h64zM320 320h64v64h-64v-64zM192 640v-192h64v192h-64z" />
    <glyph glyph-name="uniFC5E" unicode="&#xfc5e;" horiz-adv-x="512" arabic-form="isolated" 
d="M448 704v64h-64v-64h-64v-64h-128v-64h128v64h64v64h64zM64 512v-128h320v128h-64v-64h-64v64h-64v-64h-64v64h-64zM192 640v128h-128v-64h64v-64h64zM320 704v64h-64v-64h64zM320 768h64v64h-64v-64z" />
    <glyph glyph-name="uniFC5F" unicode="&#xfc5f;" horiz-adv-x="512" arabic-form="isolated" 
d="M448 448v64h-128v-64h-128v-64h-128v-64h128v64h128v64h128zM448 576v64h-64v192h-64v-128h-64v128h-64v-128h-64v128h-64v-192h256v-64h-128v-64h-128v-64h128v64h128v64h128z" />
    <glyph glyph-name="uniFC60" unicode="&#xfc60;" horiz-adv-x="512" arabic-form="isolated" 
d="M448 704v64h-128v-64h-128v-64h-128v-64h128v64h128v64h128zM64 512v-128h320v128h-64v-64h-64v64h-64v-64h-64v64h-64z" />
    <glyph glyph-name="uniFC61" unicode="&#xfc61;" horiz-adv-x="512" arabic-form="isolated" 
d="M448 576v64h-64v-64h64zM448 704v64h-64v-64h-64v-64h-256v-64h256v64h64v64h64zM64 512v-128h320v128h-64v-64h-64v64h-64v-64h-64v64h-64zM320 704v64h-64v-64h64zM320 768h64v64h-64v-64z" />
    <glyph glyph-name="uniFC62" unicode="&#xfc62;" horiz-adv-x="512" arabic-form="isolated" 
d="M448 512v64h-128v-64h-128v-64h-128v-64h128v64h128v64h128zM64 832v-192h320v192h-64v-128h-64v128h-64v-128h-64v128h-64z" />
    <glyph glyph-name="uniFC63" unicode="&#xfc63;" horiz-adv-x="512" arabic-form="isolated" 
d="M64 512v-128h320v128h-64v-64h-64v64h-64v-64h-64v64h-64zM256 768v-192h64v192h-64z" />
    <glyph glyph-name="uniFC64" unicode="&#xfc64;" horiz-adv-x="512" arabic-form="final" 
d="M512 192v64h-64v-64h64zM320 576v64h-128v-64h-64v-64h64v64h128zM320 704v64h-128v-64h-64v-64h64v64h128zM192 0h-128v-64h128v64zM192 0h64v64h-64v-64zM256 64h64v256h-64v-256zM448 256v320h-64v-64h-64v-64h-64v-64h-64v-64h64v64h64v64h64v-192h64z" />
    <glyph glyph-name="uniFC65" unicode="&#xfc65;" horiz-adv-x="512" arabic-form="final" 
d="M512 192v64h-64v-64h64zM64 576v64h-64v-64h64zM320 576v64h-128v-64h-64v-64h64v64h128zM320 704v64h-128v-64h-64v-64h64v64h128zM192 0h-128v-64h128v64zM192 0h64v64h-64v-64zM256 64h64v256h-64v-256zM448 256v320h-64v-64h-64v-64h-64v-64h-64v-64h64v64h64v64h64
v-192h64z" />
    <glyph glyph-name="uniFC66" unicode="&#xfc66;" horiz-adv-x="512" arabic-form="final" 
d="M384 192v64h-64v128h-64v-128h-128v-64h-64v-320h64v320h256zM512 448v64h-128v-64h-64v-64h64v64h128zM320 512v64h-128v-64h-64v-64h64v64h128zM320 640v64h-128v-64h-64v-64h64v64h128z" />
    <glyph glyph-name="uniFC67" unicode="&#xfc67;" horiz-adv-x="512" arabic-form="final" 
d="M512 192v64h-64v-64h64zM192 256v64h-64v-64h-64v-192h64v-64h128v64h-128v192h64zM64 512v64h-64v-64h64zM320 512v64h-128v-64h128zM320 640v64h-128v-64h-64v-64h64v64h128zM256 64h64v64h-64v-64zM320 128h64v128h-64v-128zM320 256v128h-64v-128h64zM384 256h64v256
h-64v-64h-64v-64h64v-128z" />
    <glyph glyph-name="uniFC68" unicode="&#xfc68;" horiz-adv-x="512" arabic-form="final" 
d="M448 64v64h-64v-64h-256v-64h256v64h64zM512 192v64h-64v-64h64zM384 448v64h-128v-64h-64v-64h64v64h128zM384 576v64h-128v-64h-64v-64h64v64h128zM128 64v192h-64v-192h64zM384 128v64h-64v-64h64zM320 192v64h-64v-64h64zM320 256h128v64h-128v-64z" />
    <glyph glyph-name="uniFC69" unicode="&#xfc69;" horiz-adv-x="512" arabic-form="final" 
d="M192 -128v64h-64v-64h64zM320 -128v64h-64v-64h64zM448 64v64h-64v-64h-256v-64h256v64h64zM512 192v64h-64v-64h64zM384 448v64h-128v-64h-64v-64h64v64h128zM384 576v64h-128v-64h-64v-64h64v64h128zM128 64v192h-64v-192h64zM384 128v64h-64v-64h64zM320 192v64h-64
v-64h64zM320 256h128v64h-128v-64z" />
    <glyph glyph-name="uniFC6A" unicode="&#xfc6a;" horiz-adv-x="512" arabic-form="final" 
d="M448 0v64h-64v-64h64zM512 192v64h-64v-64h64zM192 0h-128v-64h128v64zM192 0h64v64h-64v-64zM256 64h64v256h-64v-256zM448 256v320h-64v-64h-64v-64h-64v-64h-64v-64h64v64h64v64h64v-192h64z" />
    <glyph glyph-name="uniFC6B" unicode="&#xfc6b;" horiz-adv-x="512" arabic-form="final" 
d="M448 0v64h-64v-64h64zM512 192v64h-64v-64h64zM256 512v64h-64v-64h64zM192 0h-128v-64h128v64zM192 0h64v64h-64v-64zM256 64h64v256h-64v-256zM448 256v320h-64v-64h-64v-64h-64v-64h-64v-64h64v64h64v64h64v-192h64z" />
    <glyph glyph-name="uniFC6C" unicode="&#xfc6c;" horiz-adv-x="512" arabic-form="final" 
d="M384 192v64h-64v128h-64v-128h-128v-64h-64v-320h64v320h256zM512 192v64h-64v-64h64zM512 448v64h-128v-64h-64v-64h64v64h128z" />
    <glyph glyph-name="uniFC6D" unicode="&#xfc6d;" horiz-adv-x="512" arabic-form="final" 
d="M448 0v64h-64v-64h64zM512 192v64h-64v-64h64zM192 256v64h-64v-64h-64v-192h64v-64h128v64h-128v192h64zM256 512v64h-64v-64h64zM256 64h64v64h-64v-64zM320 128h64v128h-64v-128zM320 256v128h-64v-128h64zM384 256h64v256h-64v-64h-64v-64h64v-128z" />
    <glyph glyph-name="uniFC6E" unicode="&#xfc6e;" horiz-adv-x="512" arabic-form="final" 
d="M512 -64v64h-64v-64h64zM448 64v64h-64v-64h-256v-64h256v64h64zM512 192v64h-64v-64h64zM128 64v192h-64v-192h64zM384 128v64h-64v-64h64zM320 192v64h-64v-64h64zM320 256h128v64h-128v-64z" />
    <glyph glyph-name="uniFC6F" unicode="&#xfc6f;" horiz-adv-x="512" arabic-form="final" 
d="M192 -128v64h-64v-64h64zM320 -128v64h-64v-64h64zM512 -64v64h-64v-64h64zM448 64v64h-64v-64h-256v-64h256v64h64zM512 192v64h-64v-64h64zM128 64v192h-64v-192h64zM384 128v64h-64v-64h64zM320 192v64h-64v-64h64zM320 256h128v64h-128v-64z" />
    <glyph glyph-name="uniFC70" unicode="&#xfc70;" horiz-adv-x="512" arabic-form="final" 
d="M512 192v64h-64v-64h64zM384 704v64h-64v-64h64zM512 704v64h-64v-64h64zM192 0h-128v-64h128v64zM192 0h64v64h-64v-64zM256 64h64v256h-64v-256zM448 256v320h-64v-64h-64v-64h-64v-64h-64v-64h64v64h64v64h64v-192h64z" />
    <glyph glyph-name="uniFC71" unicode="&#xfc71;" horiz-adv-x="512" arabic-form="final" 
d="M512 192v64h-64v-64h64zM192 576v64h-64v-64h64zM384 704v64h-64v-64h64zM512 704v64h-64v-64h64zM192 0h-128v-64h128v64zM192 0h64v64h-64v-64zM256 64h64v256h-64v-256zM448 256v320h-64v-64h-64v-64h-64v-64h-64v-64h64v64h64v64h64v-192h64z" />
    <glyph glyph-name="uniFC72" unicode="&#xfc72;" horiz-adv-x="512" arabic-form="final" 
d="M320 192v64h-64v64h-64v-64h-64v-64h-64v-320h64v320h192zM512 192v64h-64v-64h64zM256 448v64h-64v-64h64zM384 448v64h-64v-64h64zM448 256v64h-64v-64h64zM256 320h128v64h-128v-64z" />
    <glyph glyph-name="uniFC73" unicode="&#xfc73;" horiz-adv-x="512" arabic-form="final" 
d="M512 192v64h-64v-64h64zM192 256v64h-64v-64h-64v-192h64v-64h128v64h-128v192h64zM256 512v64h-64v-64h64zM384 640v64h-64v-64h64zM512 640v64h-64v-64h64zM256 64h64v64h-64v-64zM320 128h64v128h-64v-128zM320 256v128h-64v-128h64zM384 256h64v256h-64v-64h-64v-64
h64v-128z" />
    <glyph glyph-name="uniFC74" unicode="&#xfc74;" horiz-adv-x="512" arabic-form="final" 
d="M448 64v64h-64v-64h-256v-64h256v64h64zM512 192v64h-64v-64h64zM384 448v64h-64v-64h64zM512 448v64h-64v-64h64zM128 64v192h-64v-192h64zM384 128v64h-64v-64h64zM320 192v64h-64v-64h64zM320 256h128v64h-128v-64z" />
    <glyph glyph-name="uniFC75" unicode="&#xfc75;" horiz-adv-x="512" arabic-form="final" 
d="M192 -128v64h-64v-64h64zM320 -128v64h-64v-64h64zM448 64v64h-64v-64h-256v-64h256v64h64zM512 192v64h-64v-64h64zM384 448v64h-64v-64h64zM512 448v64h-64v-64h64zM128 64v192h-64v-192h64zM384 128v64h-64v-64h64zM320 192v64h-64v-64h64zM320 256h128v64h-128v-64z
" />
    <glyph glyph-name="uniFC76" unicode="&#xfc76;" horiz-adv-x="512" arabic-form="final" 
d="M512 192v64h-64v-64h64zM384 640v64h-64v-64h64zM512 640v64h-64v-64h64zM448 768v64h-64v-64h64zM192 0h-128v-64h128v64zM192 0h64v64h-64v-64zM256 64h64v256h-64v-256zM448 256v320h-64v-64h-64v-64h-64v-64h-64v-64h64v64h64v64h64v-192h64z" />
    <glyph glyph-name="uniFC77" unicode="&#xfc77;" horiz-adv-x="512" arabic-form="final" 
d="M512 192v64h-64v-64h64zM192 512v64h-64v-64h64zM384 640v64h-64v-64h64zM512 640v64h-64v-64h64zM448 768v64h-64v-64h64zM192 0h-128v-64h128v64zM192 0h64v64h-64v-64zM256 64h64v256h-64v-256zM448 256v320h-64v-64h-64v-64h-64v-64h-64v-64h64v64h64v64h64v-192h64z
" />
    <glyph glyph-name="uniFC78" unicode="&#xfc78;" horiz-adv-x="512" arabic-form="final" 
d="M320 192v64h-64v64h-64v-64h-64v-64h-64v-320h64v320h192zM512 192v64h-64v-64h64zM256 448v64h-64v-64h64zM384 448v64h-64v-64h64zM320 576v64h-64v-64h64zM448 256v64h-64v-64h64zM256 320h128v64h-128v-64z" />
    <glyph glyph-name="uniFC79" unicode="&#xfc79;" horiz-adv-x="512" arabic-form="final" 
d="M512 192v64h-64v-64h64zM192 256v64h-64v-64h-64v-192h64v-64h128v64h-128v192h64zM256 448v64h-64v-64h64zM384 576v64h-64v-64h64zM512 576v64h-64v-64h64zM448 704v64h-64v-64h64zM256 64h64v64h-64v-64zM320 128h64v128h-64v-128zM320 256v128h-64v-128h64zM384 256
h64v256h-64v-64h-64v-64h64v-128z" />
    <glyph glyph-name="uniFC7A" unicode="&#xfc7a;" horiz-adv-x="512" arabic-form="final" 
d="M448 64v64h-64v-64h-256v-64h256v64h64zM512 192v64h-64v-64h64zM384 384v64h-64v-64h64zM512 384v64h-64v-64h64zM448 512v64h-64v-64h64zM128 64v192h-64v-192h64zM384 128v64h-64v-64h64zM320 192v64h-64v-64h64zM320 256h128v64h-128v-64z" />
    <glyph glyph-name="uniFC7B" unicode="&#xfc7b;" horiz-adv-x="512" arabic-form="final" 
d="M192 -128v64h-64v-64h64zM320 -128v64h-64v-64h64zM448 64v64h-64v-64h-256v-64h256v64h64zM512 192v64h-64v-64h64zM384 384v64h-64v-64h64zM512 384v64h-64v-64h64zM448 512v64h-64v-64h64zM128 64v192h-64v-192h64zM384 128v64h-64v-64h64zM320 192v64h-64v-64h64z
M320 256h128v64h-128v-64z" />
    <glyph glyph-name="uniFC7C" unicode="&#xfc7c;" horiz-adv-x="512" arabic-form="final" 
d="M512 192v64h-64v-64h64zM128 256v64h-64v-64h-64v-128h64v-64h64v-64h192v64h-192v64h-64v128h64zM320 512v64h-64v-64h64zM320 64h64v128h-64v64h-64v-128h64v-64zM320 256h128v128h-64v-64h-64v-64zM320 320v64h64v64h-128v-128h64z" />
    <glyph glyph-name="uniFC7D" unicode="&#xfc7d;" horiz-adv-x="512" arabic-form="final" 
d="M192 -128v64h-64v-64h64zM320 -128v64h-64v-64h64zM512 192v64h-64v-64h64zM128 256v64h-64v-64h-64v-128h64v-64h64v-64h192v64h-192v64h-64v128h64zM320 512v64h-64v-64h64zM320 64h64v128h-64v64h-64v-128h64v-64zM320 256h128v128h-64v-64h-64v-64zM320 320v64h64v64
h-128v-128h64z" />
    <glyph glyph-name="uniFC7E" unicode="&#xfc7e;" horiz-adv-x="512" arabic-form="final" 
d="M192 256v64h-64v-64h-64v-128h64v-64h64v-64h192v64h-192v64h-64v128h64zM512 320v64h-64v64h-64v-64h-64v-64h64v-64h-64v-128h64v-64h64v128h-64v64h64v64h64zM320 576v64h-64v-64h64zM448 576v64h-64v-64h64zM320 384v64h-64v-64h64zM320 448h64v64h-64v-64z" />
    <glyph glyph-name="uniFC7F" unicode="&#xfc7f;" horiz-adv-x="512" arabic-form="final" 
d="M256 -128v64h-64v-64h64zM384 -128v64h-64v-64h64zM192 256v64h-64v-64h-64v-128h64v-64h64v-64h192v64h-192v64h-64v128h64zM512 320v64h-64v64h-64v-64h-64v-64h64v-64h-64v-128h64v-64h64v128h-64v64h64v64h64zM320 576v64h-64v-64h64zM448 576v64h-64v-64h64z
M320 384v64h-64v-64h64zM320 448h64v64h-64v-64z" />
    <glyph glyph-name="uniFC80" unicode="&#xfc80;" horiz-adv-x="512" arabic-form="final" 
d="M512 192v64h-64v-64h64zM512 704v64h-64v-64h-64v-64h-64v-64h-64v-64h-64v256h-64v-448h64v-64h64v64h-64v128h64v-128h128v-64h64v64h-64v64h-64v64h-64v64h64v64h64v64h64v64h64z" />
    <glyph glyph-name="uniFC81" unicode="&#xfc81;" horiz-adv-x="512" arabic-form="final" 
d="M512 192v64h-64v-64h64zM512 704v64h-64v-64h-64v-64h-64v-64h-64v-64h-64v256h-64v-512h-64v-64h64v64h128v64h-64v128h64v-128h128v-64h64v64h-64v64h-64v64h-64v64h64v64h64v64h64v64h64zM64 256v192h-64v-192h64z" />
    <glyph glyph-name="uniFC82" unicode="&#xfc82;" horiz-adv-x="512" arabic-form="final" 
d="M384 128v64h-64v64h-64v-64h-64v-64h-64v-256h64v256h192zM512 256v64h-64v-64h64zM512 768v64h-64v-64h-64v-64h-64v-64h-64v-64h-64v-64h64v-64h64v-64h-64v-64h-64v-64h64v64h64v64h64v-64h64v64h-64v64h-64v64h-64v64h64v64h64v64h64v64h64z" />
    <glyph glyph-name="uniFC83" unicode="&#xfc83;" horiz-adv-x="512" arabic-form="final" 
d="M512 192v64h-64v-64h64zM128 256v64h-64v-64h-64v-128h64v-64h64v-64h192v64h-192v64h-64v128h64zM512 704v64h-64v-64h-64v-64h-64v-64h-64v-64h-64v-64h64v-64h64v-128h-64v-128h64v-64h64v128h-64v64h128v64h-64v64h-64v64h-64v64h64v64h64v64h64v64h64z" />
    <glyph glyph-name="uniFC84" unicode="&#xfc84;" horiz-adv-x="512" arabic-form="final" 
d="M192 -128v64h-64v-64h64zM320 -128v64h-64v-64h64zM512 192v64h-64v-64h64zM128 256v64h-64v-64h-64v-128h64v-64h64v-64h192v64h-192v64h-64v128h64zM512 704v64h-64v-64h-64v-64h-64v-64h-64v-64h-64v-64h64v-64h64v-128h-64v-128h64v-64h64v128h-64v64h128v64h-64v64
h-64v64h-64v64h64v64h64v64h64v64h64z" />
    <glyph glyph-name="uniFC85" unicode="&#xfc85;" horiz-adv-x="512" arabic-form="final" 
d="M384 64v64h-64v64h192v64h-64v320h-64v-320h-128v-192h-64v-192h64v192h128z" />
    <glyph glyph-name="uniFC86" unicode="&#xfc86;" horiz-adv-x="512" arabic-form="final" 
d="M384 64v64h-64v-64h-192v-64h192v64h64zM512 192v64h-64v-64h64zM128 256v64h-64v-64h-64v-128h64v-64h64v64h-64v128h64zM320 128v64h-64v-64h64zM320 192h64v64h-64v-64zM384 256h64v320h-64v-320z" />
    <glyph glyph-name="uniFC87" unicode="&#xfc87;" horiz-adv-x="512" arabic-form="final" 
d="M192 -128v64h-64v-64h64zM320 -128v64h-64v-64h64zM384 64v64h-64v-64h-192v-64h192v64h64zM512 192v64h-64v-64h64zM128 256v64h-64v-64h-64v-128h64v-64h64v64h-64v128h64zM320 128v64h-64v-64h64zM320 192h64v64h-64v-64zM384 256h64v320h-64v-320z" />
    <glyph glyph-name="uniFC88" unicode="&#xfc88;" horiz-adv-x="512" arabic-form="final" 
d="M448 64v64h-128v64h-128v-64h64v-64h192zM512 192v64h-192v-64h192zM192 192v128h-64v-128h64zM128 320v448h-64v-448h64z" />
    <glyph glyph-name="uniFC89" unicode="&#xfc89;" horiz-adv-x="512" arabic-form="final" 
d="M448 64v64h-128v64h-192v-128h64v64h64v-64h192zM512 192v64h-192v-64h192zM0 192v-320h64v320h-64zM64 192h64v64h-64v-64z" />
    <glyph glyph-name="uniFC8A" unicode="&#xfc8a;" horiz-adv-x="512" arabic-form="final" 
d="M512 192v64h-64v-64h64zM448 640v64h-64v-64h64zM192 0h-128v-64h128v64zM192 0h64v64h-64v-64zM256 64h64v256h-64v-256zM448 256v320h-64v-64h-64v-64h-64v-64h-64v-64h64v64h64v64h64v-192h64z" />
    <glyph glyph-name="uniFC8B" unicode="&#xfc8b;" horiz-adv-x="512" arabic-form="final" 
d="M512 192v64h-64v-64h64zM256 576v64h-64v-64h64zM448 640v64h-64v-64h64zM192 0h-128v-64h128v64zM192 0h64v64h-64v-64zM256 64h64v256h-64v-256zM448 256v320h-64v-64h-64v-64h-64v-64h-64v-64h64v64h64v64h64v-192h64z" />
    <glyph glyph-name="uniFC8C" unicode="&#xfc8c;" horiz-adv-x="512" arabic-form="final" 
d="M320 192v64h-64v64h-64v-64h-128v-64h-64v-320h64v320h256zM512 192v64h-64v-64h64zM448 576v64h-64v-64h64zM448 256v256h-64v-64h-64v-64h-64v-64h64v64h64v-128h64z" />
    <glyph glyph-name="uniFC8D" unicode="&#xfc8d;" horiz-adv-x="512" arabic-form="final" 
d="M512 192v64h-64v-64h64zM192 256v64h-64v-64h-64v-192h64v-64h128v64h-128v192h64zM256 576v64h-64v-64h64zM448 640v64h-64v-64h64zM256 64h64v64h-64v-64zM320 128h64v128h-64v-128zM320 256v128h-64v-128h64zM384 256h64v256h-64v-64h-64v-64h64v-128z" />
    <glyph glyph-name="uniFC8E" unicode="&#xfc8e;" horiz-adv-x="512" arabic-form="final" 
d="M448 64v64h-64v-64h-256v-64h256v64h64zM512 192v64h-64v-64h64zM448 448v64h-64v-64h64zM128 64v192h-64v-192h64zM384 128v64h-64v-64h64zM320 192v64h-64v-64h64zM320 256h128v64h-128v-64z" />
    <glyph glyph-name="uniFC8F" unicode="&#xfc8f;" horiz-adv-x="512" arabic-form="final" 
d="M192 -128v64h-64v-64h64zM320 -128v64h-64v-64h64zM448 64v64h-64v-64h-256v-64h256v64h64zM512 192v64h-64v-64h64zM448 448v64h-64v-64h64zM128 64v192h-64v-192h64zM384 128v64h-64v-64h64zM320 192v64h-64v-64h64zM320 256h128v64h-128v-64z" />
    <glyph glyph-name="uniFC90" unicode="&#xfc90;" horiz-adv-x="512" arabic-form="final" 
d="M448 64v64h-64v-64h-256v-64h256v64h64zM512 192v64h-64v-64h64zM128 64v192h-64v-192h64zM384 128v64h-64v-64h64zM320 192v64h-64v-64h64zM320 256h128v64h-128v-64zM192 576v-192h64v192h-64z" />
    <glyph glyph-name="uniFC91" unicode="&#xfc91;" horiz-adv-x="512" arabic-form="final" 
d="M384 -64v64h-64v-64h64zM512 -64v64h-64v-64h64zM512 192v64h-64v-64h64zM192 0h-128v-64h128v64zM192 0h64v64h-64v-64zM256 64h64v256h-64v-256zM448 256v320h-64v-64h-64v-64h-64v-64h-64v-64h64v64h64v64h64v-192h64z" />
    <glyph glyph-name="uniFC92" unicode="&#xfc92;" horiz-adv-x="512" arabic-form="final" 
d="M384 -64v64h-64v-64h64zM512 -64v64h-64v-64h64zM512 192v64h-64v-64h64zM192 576v64h-64v-64h64zM192 0h-128v-64h128v64zM192 0h64v64h-64v-64zM256 64h64v256h-64v-256zM448 256v320h-64v-64h-64v-64h-64v-64h-64v-64h64v64h64v64h64v-192h64z" />
    <glyph glyph-name="uniFC93" unicode="&#xfc93;" horiz-adv-x="512" arabic-form="final" 
d="M320 64v64h-64v-64h64zM448 64v64h-64v-64h64zM384 192v64h-64v128h-64v-128h-128v-64h-64v-320h64v320h256zM512 448v64h-128v-64h-64v-64h64v64h128z" />
    <glyph glyph-name="uniFC94" unicode="&#xfc94;" horiz-adv-x="512" arabic-form="final" 
d="M384 -64v64h-64v-64h64zM512 -64v64h-64v-64h64zM512 192v64h-64v-64h64zM192 256v64h-64v-64h-64v-192h64v-64h128v64h-128v192h64zM256 512v64h-64v-64h64zM256 64h64v64h-64v-64zM320 128h64v128h-64v-128zM320 256v128h-64v-128h64zM384 256h64v256h-64v-64h-64v-64
h64v-128z" />
    <glyph glyph-name="uniFC95" unicode="&#xfc95;" horiz-adv-x="512" arabic-form="final" 
d="M384 -128v64h-64v-64h64zM512 -64v64h-64v-64h64zM448 64v64h-64v-64h-256v-64h256v64h64zM512 192v64h-64v-64h64zM128 64v192h-64v-192h64zM384 128v64h-64v-64h64zM320 192v64h-64v-64h64zM320 256h128v64h-128v-64z" />
    <glyph glyph-name="uniFC96" unicode="&#xfc96;" horiz-adv-x="512" arabic-form="final" 
d="M128 -128v64h-64v-64h64zM256 -128v64h-64v-64h64zM384 -128v64h-64v-64h64zM512 -64v64h-64v-64h64zM448 64v64h-64v-64h-256v-64h256v64h64zM512 192v64h-64v-64h64zM128 64v192h-64v-192h64zM384 128v64h-64v-64h64zM320 192v64h-64v-64h64zM320 256h128v64h-128v-64z
" />
    <glyph glyph-name="uniFC97" unicode="&#xfc97;" horiz-adv-x="512" arabic-form="initial" 
d="M256 64v64h-64v-64h64zM384 256v64h-64v64h-128v64h-64v-64h-64v-64h192v-64h-256v-64h256v64h128zM448 704v64h-64v64h-64v-128h-64v-64h64v64h128zM448 832v64h-64v-64h64zM192 448h64v64h-64v-64zM320 512v-64h64v128h-128v-64h64z" />
    <glyph glyph-name="uniFC98" unicode="&#xfc98;" horiz-adv-x="512" arabic-form="initial" 
d="M384 256v64h-64v64h-128v64h-64v-64h-64v-64h192v-64h-256v-64h256v64h128zM448 704v64h-64v64h-64v-128h-64v-64h64v64h128zM448 832v64h-64v-64h64zM192 448h64v64h-64v-64zM320 512v-64h64v128h-128v-64h64z" />
    <glyph glyph-name="uniFC99" unicode="&#xfc99;" horiz-adv-x="512" arabic-form="initial" 
d="M384 256v64h-64v64h-128v64h-64v-64h-64v-64h192v-64h-256v-64h256v64h128zM128 512v64h-64v-64h64zM448 704v64h-64v64h-64v-128h-64v-64h64v64h128zM448 832v64h-64v-64h64zM192 448h64v64h-64v-64zM320 512v-64h64v128h-128v-64h64z" />
    <glyph glyph-name="uniFC9A" unicode="&#xfc9a;" horiz-adv-x="512" arabic-form="initial" 
d="M320 192v64h-64v128h-64v-128h-192v-64h320zM448 448v64h-128v-64h-64v-64h64v64h128zM448 640v64h-64v64h-64v-128h-64v-64h64v64h128zM448 768v64h-64v-64h64z" />
    <glyph glyph-name="uniFC9B" unicode="&#xfc9b;" horiz-adv-x="512" arabic-form="initial" 
d="M512 256v64h-64v-64h64zM384 512v64h-64v64h-64v-128h-64v-64h64v64h128zM384 640v64h-64v-64h64zM256 0v-64h128v192h-64v-128h-64zM256 0v64h-64v-64h64zM192 64v320h-64v-64h-64v-64h-64v-64h128v-128h64zM320 128v192h-64v-192h64zM320 320h128v64h-128v-64z" />
    <glyph glyph-name="uniFC9C" unicode="&#xfc9c;" horiz-adv-x="512" arabic-form="initial" 
d="M192 0v64h-64v-64h64zM384 64v64h-64v-64h64zM384 256v64h-64v64h-128v64h-64v-64h-64v-64h192v-64h-256v-64h256v64h128zM192 448h64v64h-64v-64zM320 512v-64h64v128h-128v-64h64z" />
    <glyph glyph-name="uniFC9D" unicode="&#xfc9d;" horiz-adv-x="512" arabic-form="initial" 
d="M384 64v64h-64v-64h64zM384 256v64h-64v64h-128v64h-64v-64h-64v-64h192v-64h-256v-64h256v64h128zM192 448h64v64h-64v-64zM320 512v-64h64v128h-128v-64h64z" />
    <glyph glyph-name="uniFC9E" unicode="&#xfc9e;" horiz-adv-x="512" arabic-form="initial" 
d="M384 64v64h-64v-64h64zM384 256v64h-64v64h-128v64h-64v-64h-64v-64h192v-64h-256v-64h256v64h128zM192 576v64h-64v-64h64zM192 448h64v64h-64v-64zM320 512v-64h64v128h-128v-64h64z" />
    <glyph glyph-name="uniFC9F" unicode="&#xfc9f;" horiz-adv-x="512" arabic-form="initial" 
d="M384 64v64h-64v-64h64zM320 192v64h-64v128h-64v-128h-192v-64h320zM448 448v64h-128v-64h-64v-64h64v64h128z" />
    <glyph glyph-name="uniFCA0" unicode="&#xfca0;" horiz-adv-x="512" arabic-form="initial" 
d="M512 64v64h-64v-64h64zM512 256v64h-64v-64h64zM256 0v-64h128v192h-64v-128h-64zM256 0v64h-64v-64h64zM192 64v320h-64v-64h-64v-64h-64v-64h128v-128h64zM320 128v192h-64v-192h64zM320 320h128v64h-128v-64z" />
    <glyph glyph-name="uniFCA1" unicode="&#xfca1;" horiz-adv-x="512" arabic-form="initial" 
d="M192 0v64h-64v-64h64zM384 256v64h-64v64h-128v64h-64v-64h-64v-64h192v-64h-256v-64h256v64h128zM320 704v64h-64v-64h64zM448 704v64h-64v-64h64zM192 448h64v64h-64v-64zM320 512v-64h64v128h-128v-64h64z" />
    <glyph glyph-name="uniFCA2" unicode="&#xfca2;" horiz-adv-x="512" arabic-form="initial" 
d="M384 256v64h-64v64h-128v64h-64v-64h-64v-64h192v-64h-256v-64h256v64h128zM320 704v64h-64v-64h64zM448 704v64h-64v-64h64zM192 448h64v64h-64v-64zM320 512v-64h64v128h-128v-64h64z" />
    <glyph glyph-name="uniFCA3" unicode="&#xfca3;" horiz-adv-x="512" arabic-form="initial" 
d="M384 256v64h-64v64h-128v64h-64v-64h-64v-64h192v-64h-256v-64h256v64h128zM192 576v64h-64v-64h64zM320 704v64h-64v-64h64zM448 704v64h-64v-64h64zM192 448h64v64h-64v-64zM320 512v-64h64v128h-128v-64h64z" />
    <glyph glyph-name="uniFCA4" unicode="&#xfca4;" horiz-adv-x="512" arabic-form="initial" 
d="M320 192v64h-64v128h-64v-128h-192v-64h320zM448 448v64h-128v-64h-64v-64h64v64h128zM320 640v64h-64v-64h64zM448 640v64h-64v-64h64z" />
    <glyph glyph-name="uniFCA5" unicode="&#xfca5;" horiz-adv-x="512" arabic-form="initial" 
d="M512 256v64h-64v-64h64zM320 512v64h-64v-64h64zM448 512v64h-64v-64h64zM256 0v-64h128v192h-64v-128h-64zM256 0v64h-64v-64h64zM192 64v320h-64v-64h-64v-64h-64v-64h128v-128h64zM320 128v192h-64v-192h64zM320 320h128v64h-128v-64z" />
    <glyph glyph-name="uniFCA6" unicode="&#xfca6;" horiz-adv-x="512" arabic-form="initial" 
d="M320 192v64h-64v128h-64v-128h-192v-64h320zM448 448v64h-128v-64h-64v-64h64v64h128zM320 640v64h-64v-64h64zM448 640v64h-64v-64h64zM384 768v64h-64v-64h64z" />
    <glyph glyph-name="uniFCA7" unicode="&#xfca7;" horiz-adv-x="512" arabic-form="initial" 
d="M448 256v64h-64v-64h64zM448 384v64h-320v64h-64v-128h128v-64h-128v-64h-64v-64h64v64h128v64h128v64h128zM448 576v64h-64v64h-64v-64h-128v-64h-64v-64h64v64h256zM320 704v64h-128v-64h128zM128 768h64v64h-128v-128h64v64z" />
    <glyph glyph-name="uniFCA8" unicode="&#xfca8;" horiz-adv-x="512" arabic-form="initial" 
d="M320 64v64h-64v-64h64zM512 320v64h-64v64h-64v-64h-192v-64h-64v-64h-128v-64h128v64h64v-64h128v128h192zM192 256v64h64v-64h-64zM384 448v64h-192v-64h192z" />
    <glyph glyph-name="uniFCA9" unicode="&#xfca9;" horiz-adv-x="512" arabic-form="initial" 
d="M256 128v64h-64v-64h64zM448 384v64h-320v64h-64v-128h128v-64h-128v-64h-64v-64h64v64h128v64h128v64h128zM448 576v64h-64v64h-64v-64h-128v-64h-64v-64h64v64h256zM320 704v64h-128v-64h128zM128 768h64v64h-128v-128h64v64z" />
    <glyph glyph-name="uniFCAA" unicode="&#xfcaa;" horiz-adv-x="512" arabic-form="initial" 
d="M128 256h-128v-64h128v64zM128 256h64v-64h128v128h192v128h-128v-64h-192v-64h-64v-64zM192 256v64h64v-64h-64zM384 448v64h-192v-64h192z" />
    <glyph glyph-name="uniFCAB" unicode="&#xfcab;" horiz-adv-x="512" arabic-form="initial" 
d="M256 128v64h-64v-64h64zM448 384v64h-320v64h-64v-128h128v-64h-128v-64h-64v-64h64v64h128v64h128v64h128zM448 576v64h-64v64h-64v-64h-128v-64h-64v-64h64v64h256zM320 832v64h-64v-64h64zM320 704v64h-128v-64h128zM128 768h64v64h-128v-128h64v64z" />
    <glyph glyph-name="uniFCAC" unicode="&#xfcac;" horiz-adv-x="512" arabic-form="initial" 
d="M320 640v64h-64v-64h64zM128 256h-128v-64h128v64zM128 256h64v-64h128v128h192v128h-128v-64h-192v-64h-64v-64zM192 256v64h64v-64h-64zM384 448v64h-192v-64h192z" />
    <glyph glyph-name="uniFCAD" unicode="&#xfcad;" arabic-form="initial" 
d="M256 128v64h-64v-64h64zM448 384v64h-320v64h-64v-128h128v-64h-128v-64h-64v-64h64v64h128v64h128v64h128zM128 512h64v64h-64v-64zM576 512v-64h128v64h-128zM576 512v128h-384v-64h320v-64h64zM704 512h64v-64h64v64h-64v128h-64v-128zM832 512h64v128h-64v-128z" />
    <glyph glyph-name="uniFCAE" unicode="&#xfcae;" arabic-form="initial" 
d="M448 384v64h-320v64h-64v-128h128v-64h-128v-64h-64v-64h64v64h128v64h128v64h128zM128 512h64v64h-64v-64zM576 512v-64h128v64h-128zM576 512v128h-384v-64h320v-64h64zM704 512h64v-64h64v64h-64v128h-64v-128zM832 512h64v128h-64v-128z" />
    <glyph glyph-name="uniFCAF" unicode="&#xfcaf;" arabic-form="initial" 
d="M448 384v64h-320v64h-64v-128h128v-64h-128v-64h-64v-64h64v64h128v64h128v64h128zM128 640v64h-64v-64h64zM128 512h64v64h-64v-64zM576 512v-64h128v64h-128zM576 512v128h-384v-64h320v-64h64zM704 512h64v-64h64v64h-64v128h-64v-128zM832 512h64v128h-64v-128z" />
    <glyph glyph-name="uniFCB0" unicode="&#xfcb0;" horiz-adv-x="512" arabic-form="initial" 
d="M192 192v64h-64v64h-64v-64h-64v-64h192zM128 320h320v64h-64v128h-64v-128h-64v128h-64v-128h-64v-64zM448 384h64v192h-64v-192z" />
    <glyph glyph-name="uniFCB1" unicode="&#xfcb1;" arabic-form="initial" 
d="M448 384v64h-320v64h-64v-128h128v-64h-128v-64h-64v-64h64v64h128v64h128v64h128zM128 512h64v64h-64v-64zM640 512h128v64h-128v64h-64v-64h-64v-64h64v-64h64v64zM192 576h64v64h-64v-64zM512 576v64h-64v-64h64zM768 576h64v64h-64v-64zM256 640h64v64h-64v-64z
M448 640v64h-64v-64h64zM640 640h64v64h-64v-64zM832 640h64v128h-64v-128zM320 704h64v64h-64v-64zM704 704h64v64h-64v-64zM768 768h64v64h-64v-64z" />
    <glyph glyph-name="uniFCB2" unicode="&#xfcb2;" arabic-form="initial" 
d="M448 384v64h-320v64h-64v-128h128v-64h-128v-64h-64v-64h64v64h128v64h128v64h128zM128 704v64h-64v-64h64zM128 512h64v64h-64v-64zM640 512h128v64h-128v64h-64v-64h-64v-64h64v-64h64v64zM192 576h64v64h-64v-64zM512 576v64h-64v-64h64zM768 576h64v64h-64v-64z
M256 640h64v64h-64v-64zM448 640v64h-64v-64h64zM640 640h64v64h-64v-64zM832 640h64v128h-64v-128zM320 704h64v64h-64v-64zM704 704h64v64h-64v-64zM768 768h64v64h-64v-64z" />
    <glyph glyph-name="uniFCB3" unicode="&#xfcb3;" arabic-form="initial" 
d="M192 192v64h-64v64h-64v-64h-64v-64h192zM128 320h64v128h-64v-128zM512 384h128v64h-128v64h-64v-64h-192v-64h192v-64h64v64zM192 448h64v64h-64v-64zM640 448h64v64h-64v-64zM512 512h64v64h-64v-64zM704 512h64v128h-64v-128zM576 576h64v64h-64v-64zM640 640h64v64
h-64v-64z" />
    <glyph glyph-name="uniFCB4" unicode="&#xfcb4;" arabic-form="initial" 
d="M320 128v64h-64v-64h64zM448 384v64h-320v64h-64v-128h128v-64h-128v-64h-64v-64h64v64h128v64h128v64h128zM576 832v64h-64v-64h64zM128 512h64v64h-64v-64zM640 512h128v64h-128v64h-64v-64h-64v-64h64v-64h64v64zM192 576h64v64h-64v-64zM512 576v64h-64v-64h64z
M768 576h64v64h-64v-64zM256 640h64v64h-64v-64zM448 640v64h-64v-64h64zM640 640h64v64h-64v-64zM832 640h64v128h-64v-128zM320 704h64v64h-64v-64zM704 704h64v64h-64v-64zM768 768h64v64h-64v-64z" />
    <glyph glyph-name="uniFCB5" unicode="&#xfcb5;" arabic-form="initial" 
d="M448 384v64h-320v64h-64v-128h128v-64h-128v-64h-64v-64h64v64h128v64h128v64h128zM576 832v64h-64v-64h64zM128 512h64v64h-64v-64zM640 512h128v64h-128v64h-64v-64h-64v-64h64v-64h64v64zM192 576h64v64h-64v-64zM512 576v64h-64v-64h64zM768 576h64v64h-64v-64z
M256 640h64v64h-64v-64zM448 640v64h-64v-64h64zM640 640h64v64h-64v-64zM832 640h64v128h-64v-128zM320 704h64v64h-64v-64zM704 704h64v64h-64v-64zM768 768h64v64h-64v-64z" />
    <glyph glyph-name="uniFCB6" unicode="&#xfcb6;" arabic-form="initial" 
d="M448 384v64h-320v64h-64v-128h128v-64h-128v-64h-64v-64h64v64h128v64h128v64h128zM128 704v64h-64v-64h64zM576 832v64h-64v-64h64zM128 512h64v64h-64v-64zM640 512h128v64h-128v64h-64v-64h-64v-64h64v-64h64v64zM192 576h64v64h-64v-64zM512 576v64h-64v-64h64z
M768 576h64v64h-64v-64zM256 640h64v64h-64v-64zM448 640v64h-64v-64h64zM640 640h64v64h-64v-64zM832 640h64v128h-64v-128zM320 704h64v64h-64v-64zM704 704h64v64h-64v-64zM768 768h64v64h-64v-64z" />
    <glyph glyph-name="uniFCB7" unicode="&#xfcb7;" arabic-form="initial" 
d="M192 192v64h-64v64h-64v-64h-64v-64h192zM384 640v64h-64v-64h64zM128 320h64v128h-64v-128zM512 384h128v64h-128v64h-64v-64h-192v-64h192v-64h64v64zM192 448h64v64h-64v-64zM640 448h64v64h-64v-64zM512 512h64v64h-64v-64zM704 512h64v128h-64v-128zM576 576h64v64
h-64v-64zM640 640h64v64h-64v-64z" />
    <glyph glyph-name="uniFCB8" unicode="&#xfcb8;" horiz-adv-x="512" arabic-form="initial" 
d="M448 384v64h-128v-64h-128v-64h-128v-64h-64v-64h64v64h128v64h128v64h128zM512 640v64h-64v-64h-128v64h-64v192h-64v-320h-64v-64h-64v-64h256v64h-128v64h256v64h64zM320 704h128v64h-128v-64z" />
    <glyph glyph-name="uniFCB9" unicode="&#xfcb9;" horiz-adv-x="512" arabic-form="initial" 
d="M320 128v64h-64v-64h-128v-64h128v64h64zM512 384v64h-64v-64h-128v64h-64v192h-64v-256h-64v-64h-64v-64h-64v-64h64v-64h64v64h128v64h-128v64h320v64h64zM448 576v64h-64v-64h64zM320 448h128v64h-128v-64z" />
    <glyph glyph-name="uniFCBA" unicode="&#xfcba;" horiz-adv-x="512" arabic-form="initial" 
d="M256 128v64h-64v-64h64zM448 384v64h-320v64h-64v-128h128v-64h-128v-64h-64v-64h64v64h128v64h128v64h128zM448 640v64h-64v-64h-128v-64h-128v-64h128v64h128v64h64zM256 704v64h-128v-64h-64v-128h64v128h128z" />
    <glyph glyph-name="uniFCBB" unicode="&#xfcbb;" horiz-adv-x="512" arabic-form="initial" 
d="M320 128v64h-64v-64h-128v-64h128v64h64zM384 384v64h-128v-64h-128v-64h-64v-64h-64v-64h64v-64h64v64h128v64h-128v64h128v64h128zM256 512v64h-128v-64h-64v-128h64v128h128z" />
    <glyph glyph-name="uniFCBC" unicode="&#xfcbc;" horiz-adv-x="512" arabic-form="initial" 
d="M256 128v64h-64v-64h64zM448 384v64h-320v64h-64v-128h128v-64h-128v-64h-64v-64h64v64h128v64h128v64h128zM448 640v64h-64v-64h-128v-64h-128v-64h128v64h128v64h64zM256 704v64h-128v-64h-64v-128h64v128h128zM192 832v64h-64v-64h64z" />
    <glyph glyph-name="uniFCBD" unicode="&#xfcbd;" horiz-adv-x="512" arabic-form="initial" 
d="M320 128v64h-64v-64h-128v-64h128v64h64zM384 384v64h-128v-64h-128v-64h-64v-64h-64v-64h64v-64h64v64h128v64h-128v64h128v64h128zM256 512v64h-128v-64h-64v-128h64v128h128zM192 640v64h-64v-64h64z" />
    <glyph glyph-name="uniFCBE" unicode="&#xfcbe;" horiz-adv-x="512" arabic-form="initial" 
d="M320 128v64h-64v-64h64zM448 384v64h-256v64h-64v-128h128v-64h-128v-64h-128v-64h128v64h128v64h128v64h64zM128 832v64h-64v-64h64zM192 512h64v64h-64v-64zM256 576h64v192h-64v-64h-64v64h-64v-128h128v-64zM192 768h64v64h-64v-64z" />
    <glyph glyph-name="uniFCBF" unicode="&#xfcbf;" horiz-adv-x="512" arabic-form="initial" 
d="M448 384v64h-256v64h-64v-128h128v-64h-128v-64h-128v-64h128v64h128v64h128v64h64zM128 832v64h-64v-64h64zM192 512h64v64h-64v-64zM256 576h64v192h-64v-64h-64v64h-64v-128h128v-64zM192 768h64v64h-64v-64z" />
    <glyph glyph-name="uniFCC0" unicode="&#xfcc0;" horiz-adv-x="512" arabic-form="initial" 
d="M448 320v64h-256v64h-64v-128h128v-64h-256v-64h256v64h128v64h64zM64 512v64h-64v-64h64zM128 768v64h-64v-64h64zM192 448h64v64h-64v-64zM256 512h64v192h-64v-64h-64v64h-64v-128h128v-64zM192 704h64v64h-64v-64z" />
    <glyph glyph-name="uniFCC1" unicode="&#xfcc1;" horiz-adv-x="512" arabic-form="initial" 
d="M320 128v64h-64v-64h-64v-64h64v64h64zM256 768v64h-64v-64h64zM192 128v64h64v64h-64v128h-64v-128h-128v-64h128v-64h64zM192 384h64v64h-64v-64zM256 448h64v192h-64v-64h-64v64h-64v-128h128v-64zM192 640h64v64h-64v-64z" />
    <glyph glyph-name="uniFCC2" unicode="&#xfcc2;" horiz-adv-x="512" arabic-form="initial" 
d="M320 64v64h-64v-64h64zM448 320v64h-256v64h-64v-128h128v-64h-256v-64h256v64h128v64h64zM192 832v64h-64v-64h64zM320 832v64h-64v-64h64zM192 448h64v64h-64v-64zM256 512h64v192h-64v-64h-64v64h-64v-128h128v-64zM192 704h64v64h-64v-64z" />
    <glyph glyph-name="uniFCC3" unicode="&#xfcc3;" horiz-adv-x="512" arabic-form="initial" 
d="M320 128v64h-64v-64h-64v-64h64v64h64zM192 768v64h-64v-64h64zM320 768v64h-64v-64h64zM192 128v64h64v64h-64v128h-64v-128h-128v-64h128v-64h64zM192 384h64v64h-64v-64zM256 448h64v192h-64v-64h-64v64h-64v-128h128v-64zM192 640h64v64h-64v-64z" />
    <glyph glyph-name="uniFCC4" unicode="&#xfcc4;" horiz-adv-x="512" arabic-form="initial" 
d="M320 128v64h-64v-64h64zM448 384v64h-192v64h-64v-64h-128v-64h128v-64h-128v-64h-64v-64h64v64h128v64h128v64h128zM320 512v64h-64v-64h64zM448 832v64h-64v-64h-64v-64h-64v-64h-64v-64h-64v-64h128v128h64v64h64v64h64z" />
    <glyph glyph-name="uniFCC5" unicode="&#xfcc5;" horiz-adv-x="512" arabic-form="initial" 
d="M448 384v64h-192v64h-64v-64h-128v-64h128v-64h-128v-64h-64v-64h64v64h128v64h128v64h128zM320 512v64h-64v-64h64zM448 832v64h-64v-64h-64v-64h-64v-64h-64v-64h-64v-64h128v128h64v64h64v64h64z" />
    <glyph glyph-name="uniFCC6" unicode="&#xfcc6;" horiz-adv-x="512" arabic-form="initial" 
d="M448 384v64h-192v64h-64v-64h-128v-64h128v-64h-128v-64h-64v-64h64v64h128v64h128v64h128zM64 512v64h-64v-64h64zM320 512v64h-64v-64h64zM448 832v64h-64v-64h-64v-64h-64v-64h-64v-64h-64v-64h128v128h64v64h64v64h64z" />
    <glyph glyph-name="uniFCC7" unicode="&#xfcc7;" horiz-adv-x="512" arabic-form="initial" 
d="M448 768v64h-64v-64h-64v-64h-64v-64h-64v-64h-64v192h-64v-448h64v-64h-128v-64h128v64h64v-64h128v64h-128v64h-64v128h192v-192h64v192h-64v64h-128v64h64v64h64v64h64v64h64z" />
    <glyph glyph-name="uniFCC8" unicode="&#xfcc8;" horiz-adv-x="512" arabic-form="initial" 
d="M320 128v64h-64v-64h-64v-64h64v64h64zM384 768v64h-64v-64h-64v-64h-64v-64h-64v-64h-64v-64h64v-64h64v-128h-64v-64h-128v-64h128v-64h64v64h64v64h-64v64h64v128h-64v64h-64v64h64v64h64v64h64v64h64z" />
    <glyph glyph-name="uniFCC9" unicode="&#xfcc9;" horiz-adv-x="512" arabic-form="initial" 
d="M192 0v64h-64v-64h64zM384 256v64h-64v64h-128v64h-64v-64h-64v-64h192v-64h-256v-64h256v64h128zM192 448h64v320h-64v-320z" />
    <glyph glyph-name="uniFCCA" unicode="&#xfcca;" horiz-adv-x="512" arabic-form="initial" 
d="M384 256v64h-64v64h-128v64h-64v-64h-64v-64h192v-64h-256v-64h256v64h128zM192 448h64v320h-64v-320z" />
    <glyph glyph-name="uniFCCB" unicode="&#xfccb;" horiz-adv-x="512" arabic-form="initial" 
d="M384 256v64h-64v64h-128v64h-64v-64h-64v-64h192v-64h-256v-64h256v64h128zM128 576v64h-64v-64h64zM192 448h64v320h-64v-320z" />
    <glyph glyph-name="uniFCCC" unicode="&#xfccc;" horiz-adv-x="512" arabic-form="initial" 
d="M448 128v64h-64v-64h64zM384 192v64h-64v448h-64v-448h-256v-64h384z" />
    <glyph glyph-name="uniFCCD" unicode="&#xfccd;" horiz-adv-x="512" arabic-form="initial" 
d="M256 256h64v-64h128v192h-64v-128h-64v128h64v384h-64v-320h-128v-64h-64v-128h-128v-64h256v64zM192 320v64h64v-64h-64z" />
    <glyph glyph-name="uniFCCE" unicode="&#xfcce;" horiz-adv-x="512" arabic-form="initial" 
d="M192 0v64h-64v-64h64zM384 256v64h-64v64h-128v64h-64v-64h-64v-64h192v-64h-256v-64h256v64h128zM448 512v64h-64v-64h-64v64h-64v-64h-64v-64h192v64h64zM320 576h64v64h-64v-64z" />
    <glyph glyph-name="uniFCCF" unicode="&#xfccf;" horiz-adv-x="512" arabic-form="initial" 
d="M384 256v64h-64v64h-128v64h-64v-64h-64v-64h192v-64h-256v-64h256v64h128zM448 512v64h-64v-64h-64v64h-64v-64h-64v-64h192v64h64zM320 576h64v64h-64v-64z" />
    <glyph glyph-name="uniFCD0" unicode="&#xfcd0;" horiz-adv-x="512" arabic-form="initial" 
d="M384 256v64h-64v64h-128v64h-64v-64h-64v-64h192v-64h-256v-64h256v64h128zM448 512v64h-64v-64h-64v64h-64v-64h-64v-64h192v64h64zM192 576v64h-64v-64h64zM320 576h64v64h-64v-64z" />
    <glyph glyph-name="uniFCD1" unicode="&#xfcd1;" horiz-adv-x="512" arabic-form="initial" 
d="M256 192v64h-64v128h-64v-128h-128v-64h256zM192 384h256v128h-64v-64h-64v64h-64v-64h-64v-64zM320 512h64v64h-64v-64z" />
    <glyph glyph-name="uniFCD2" unicode="&#xfcd2;" horiz-adv-x="512" arabic-form="initial" 
d="M192 0v64h-64v-64h64zM384 256v64h-64v64h-128v64h-64v-64h-64v-64h192v-64h-256v-64h256v64h128zM384 704v64h-64v-64h64zM192 448h64v64h-64v-64zM320 512v-64h64v128h-128v-64h64z" />
    <glyph glyph-name="uniFCD3" unicode="&#xfcd3;" horiz-adv-x="512" arabic-form="initial" 
d="M384 256v64h-64v64h-128v64h-64v-64h-64v-64h192v-64h-256v-64h256v64h128zM384 704v64h-64v-64h64zM192 448h64v64h-64v-64zM320 512v-64h64v128h-128v-64h64z" />
    <glyph glyph-name="uniFCD4" unicode="&#xfcd4;" horiz-adv-x="512" arabic-form="initial" 
d="M384 256v64h-64v64h-128v64h-64v-64h-64v-64h192v-64h-256v-64h256v64h128zM192 576v64h-64v-64h64zM384 704v64h-64v-64h64zM192 448h64v64h-64v-64zM320 512v-64h64v128h-128v-64h64z" />
    <glyph glyph-name="uniFCD5" unicode="&#xfcd5;" horiz-adv-x="512" arabic-form="initial" 
d="M320 192v64h-64v128h-64v-128h-192v-64h320zM448 448v64h-128v-64h-64v-64h64v64h128zM384 640v64h-64v-64h64z" />
    <glyph glyph-name="uniFCD6" unicode="&#xfcd6;" horiz-adv-x="512" arabic-form="initial" 
d="M384 448v64h-64v-64h64zM256 0v-64h128v192h-64v-128h-64zM256 0v64h-64v-64h64zM192 64v320h-64v-64h-64v-64h-64v-64h128v-128h64zM320 128v192h-64v-192h64zM384 320v-64h64v128h-128v-64h64z" />
    <glyph glyph-name="uniFCD7" unicode="&#xfcd7;" horiz-adv-x="512" arabic-form="initial" 
d="M256 128v64h-64v-64h64zM448 384v64h-320v64h-64v-128h128v-64h-128v-64h-64v-64h64v64h128v64h128v64h128zM128 512h320v64h-128v128h-64v-128h-64v128h-64v-192zM448 576h64v128h-64v-128zM192 704h64v64h128v-64h64v64h-64v64h-256v-64h64v-64z" />
    <glyph glyph-name="uniFCD8" unicode="&#xfcd8;" horiz-adv-x="512" arabic-form="initial" 
d="M256 128v64h-64v-64h-64v-64h64v64h64zM128 128v64h64v64h-64v64h-64v-64h-64v-64h64v-64h64zM128 320h64v64h-64v-64zM192 384h64v64h-64v-64zM256 448h64v64h128v64h-128v128h-64v-128h-64v-64h64v-64zM192 576v128h-64v-128h64zM448 576h64v128h-64v-128zM192 704h64
v64h128v-64h64v64h-64v64h-256v-64h64v-64z" />
    <glyph glyph-name="uniFCD9" unicode="&#xfcd9;" horiz-adv-x="512" arabic-form="initial" 
d="M64 256h-64v-64h64v64zM64 256h64v64h-64v-64zM128 320h64v64h192v64h-128v128h-64v-128h-64v-128zM128 448v128h-64v-128h64zM384 448h64v128h-64v-128zM128 576h64v64h128v-64h64v64h-64v64h-256v-64h64v-64zM128 896v-128h64v128h-64z" />
    <glyph glyph-name="uniFCDA" unicode="&#xfcda;" horiz-adv-x="512" arabic-form="initial" 
d="M192 0v64h-64v-64h64zM320 64v64h-64v-64h64zM448 64v64h-64v-64h64zM384 256v64h-64v64h-128v64h-64v-64h-64v-64h192v-64h-256v-64h256v64h128zM192 448h64v64h-64v-64zM320 512v-64h64v128h-128v-64h64z" />
    <glyph glyph-name="uniFCDB" unicode="&#xfcdb;" horiz-adv-x="512" arabic-form="initial" 
d="M320 64v64h-64v-64h64zM448 64v64h-64v-64h64zM384 256v64h-64v64h-128v64h-64v-64h-64v-64h192v-64h-256v-64h256v64h128zM192 448h64v64h-64v-64zM320 512v-64h64v128h-128v-64h64z" />
    <glyph glyph-name="uniFCDC" unicode="&#xfcdc;" horiz-adv-x="512" arabic-form="initial" 
d="M320 64v64h-64v-64h64zM448 64v64h-64v-64h64zM384 256v64h-64v64h-128v64h-64v-64h-64v-64h192v-64h-256v-64h256v64h128zM192 576v64h-64v-64h64zM192 448h64v64h-64v-64zM320 512v-64h64v128h-128v-64h64z" />
    <glyph glyph-name="uniFCDD" unicode="&#xfcdd;" horiz-adv-x="512" arabic-form="initial" 
d="M320 64v64h-64v-64h64zM448 64v64h-64v-64h64zM320 192v64h-64v128h-64v-128h-192v-64h320zM448 448v64h-128v-64h-64v-64h64v64h128z" />
    <glyph glyph-name="uniFCDE" unicode="&#xfcde;" horiz-adv-x="512" arabic-form="initial" 
d="M384 192v64h-64v-64h64zM512 192v64h-64v-64h64zM448 320v64h-64v-64h64zM192 0v-64h128v192h-64v-128h-64zM192 0v64h-64v-64h64zM128 64v256h-64v-64h-64v-64h64v-128h64zM256 128v256h-64v-256h64zM256 384h128v64h-128v-64z" />
    <glyph glyph-name="uniFCDF" unicode="&#xfcdf;" horiz-adv-x="512" arabic-form="medial" 
d="M256 192v64h-64v-64h64zM512 192v64h-128v-64h128zM384 576v64h-128v-64h-128v-64h128v64h128zM384 704v64h-128v-64h-64v-64h64v64h128zM128 256h-128v-64h128v64zM128 256h64v128h-64v-128zM384 256v64h-64v-64h64zM320 320v64h-64v-64h64zM192 384h64v64h-64v-64z" />
    <glyph glyph-name="uniFCE0" unicode="&#xfce0;" horiz-adv-x="512" arabic-form="medial" 
d="M512 192v64h-64v-64h64zM448 512v64h-128v-64h-128v-64h128v64h128zM448 640v64h-128v-64h-64v-64h64v64h128zM256 0v-64h128v192h-64v-128h-64zM256 0v64h-64v-64h64zM192 64v320h-64v-64h-64v-64h-64v-64h128v-128h64zM320 128v192h-64v-192h64zM448 256v64h-64v-64h64
zM320 320h64v64h-64v-64z" />
    <glyph glyph-name="uniFCE1" unicode="&#xfce1;" horiz-adv-x="512" arabic-form="medial" 
d="M320 64v64h-64v-64h64zM256 192v64h-64v-64h64zM512 192v64h-128v-64h128zM128 256h-128v-64h128v64zM128 256h64v128h-64v-128zM384 256v64h-64v-64h64zM320 320v64h-64v-64h64zM192 384h64v64h-64v-64z" />
    <glyph glyph-name="uniFCE2" unicode="&#xfce2;" horiz-adv-x="512" arabic-form="medial" 
d="M512 64v64h-64v-64h64zM512 192v64h-64v-64h64zM256 0v-64h128v192h-64v-128h-64zM256 0v64h-64v-64h64zM192 64v320h-64v-64h-64v-64h-64v-64h128v-128h64zM320 128v192h-64v-192h64zM448 256v64h-64v-64h64zM320 320h64v64h-64v-64z" />
    <glyph glyph-name="uniFCE3" unicode="&#xfce3;" horiz-adv-x="512" arabic-form="medial" 
d="M256 192v64h-64v-64h64zM512 192v64h-128v-64h128zM256 512v64h-64v-64h64zM384 512v64h-64v-64h64zM128 256h-128v-64h128v64zM128 256h64v128h-64v-128zM384 256v64h-64v-64h64zM320 320v64h-64v-64h64zM192 384h64v64h-64v-64z" />
    <glyph glyph-name="uniFCE4" unicode="&#xfce4;" horiz-adv-x="512" arabic-form="medial" 
d="M512 192v64h-64v-64h64zM256 512v64h-64v-64h64zM384 512v64h-64v-64h64zM256 0v-64h128v192h-64v-128h-64zM256 0v64h-64v-64h64zM192 64v320h-64v-64h-64v-64h-64v-64h128v-128h64zM320 128v192h-64v-192h64zM448 256v64h-64v-64h64zM320 320h64v64h-64v-64z" />
    <glyph glyph-name="uniFCE5" unicode="&#xfce5;" horiz-adv-x="512" arabic-form="medial" 
d="M256 192v64h-64v-64h64zM512 192v64h-128v-64h128zM256 512v64h-64v-64h64zM384 512v64h-64v-64h64zM320 640v64h-64v-64h64zM128 256h-128v-64h128v64zM128 256h64v128h-64v-128zM384 256v64h-64v-64h64zM320 320v64h-64v-64h64zM192 384h64v64h-64v-64z" />
    <glyph glyph-name="uniFCE6" unicode="&#xfce6;" horiz-adv-x="512" arabic-form="medial" 
d="M512 192v64h-64v-64h64zM256 512v64h-64v-64h64zM384 512v64h-64v-64h64zM320 640v64h-64v-64h64zM256 0v-64h128v192h-64v-128h-64zM256 0v64h-64v-64h64zM192 64v320h-64v-64h-64v-64h-64v-64h128v-128h64zM320 128v192h-64v-192h64zM448 256v64h-64v-64h64zM320 320
h64v64h-64v-64z" />
    <glyph glyph-name="uniFCE7" unicode="&#xfce7;" arabic-form="medial" 
d="M256 192v64h-64v-64h64zM1024 192v64h-64v-64h64zM128 256h-128v-64h128v64zM128 256h64v128h-64v-128zM448 256v-64h256v64h-256zM448 256v64h-64v-64h64zM704 256h64v-64h128v64h-128v128h-64v-128zM896 256h64v128h-64v-128zM384 320v64h-64v-64h64zM192 384h128v64
h-128v-64z" />
    <glyph glyph-name="uniFCE8" unicode="&#xfce8;" arabic-form="medial" 
d="M1024 192v64h-64v-64h64zM256 0v-64h128v192h-64v-128h-64zM256 0v64h-64v-64h64zM192 64v320h-64v-64h-64v-64h-64v-64h128v-128h64zM320 128v192h-64v-192h64zM512 256v-64h192v64h-192zM512 256v64h-64v-64h64zM704 256h64v-64h128v64h-128v128h-64v-128zM896 256h64
v128h-64v-128zM320 320h128v64h-128v-64z" />
    <glyph glyph-name="uniFCE9" unicode="&#xfce9;" arabic-form="medial" 
d="M256 192v64h-64v-64h64zM1024 192v64h-64v-64h64zM704 512v64h-64v-64h64zM832 512v64h-64v-64h64zM768 640v64h-64v-64h64zM128 256h-128v-64h128v64zM128 256h64v128h-64v-128zM448 256v-64h256v64h-256zM448 256v64h-64v-64h64zM704 256h64v-64h128v64h-128v128h-64
v-128zM896 256h64v128h-64v-128zM384 320v64h-64v-64h64zM192 384h128v64h-128v-64z" />
    <glyph glyph-name="uniFCEA" unicode="&#xfcea;" arabic-form="medial" 
d="M1024 192v64h-64v-64h64zM704 512v64h-64v-64h64zM832 512v64h-64v-64h64zM768 640v64h-64v-64h64zM256 0v-64h128v192h-64v-128h-64zM256 0v64h-64v-64h64zM192 64v320h-64v-64h-64v-64h-64v-64h128v-128h64zM320 128v192h-64v-192h64zM448 256v-64h256v64h-256z
M448 256v64h-64v-64h64zM704 256h64v-64h128v64h-128v128h-64v-128zM896 256h64v128h-64v-128zM320 320h64v64h-64v-64z" />
    <glyph glyph-name="uniFCEB" unicode="&#xfceb;" horiz-adv-x="512" arabic-form="medial" 
d="M512 192v64h-64v-64h64zM448 768v64h-64v-64h-64v-64h-64v-64h-64v-64h-64v192h-64v-512h-64v-64h64v64h64v-64h128v64h-128v192h128v-192h64v64h64v-64h64v64h-64v64h-64v64h-64v64h-64v64h64v64h64v64h64v64h64z" />
    <glyph glyph-name="uniFCEC" unicode="&#xfcec;" horiz-adv-x="512" arabic-form="medial" 
d="M320 128v64h-64v-64h-64v-64h64v64h64zM512 192v64h-128v-64h128zM384 768v64h-64v-64h-64v-64h-64v-64h-64v-64h-64v-64h64v-64h64v-128h-64v-64h-128v-64h128v-64h64v64h64v64h-64v64h128v-64h64v64h-64v64h-64v64h-64v64h-64v64h64v64h64v64h64v64h64z" />
    <glyph glyph-name="uniFCED" unicode="&#xfced;" horiz-adv-x="512" arabic-form="medial" 
d="M320 128v64h-64v-64h-64v-64h64v64h64zM512 192v64h-128v-64h128zM192 128v64h64v64h-64v64h-64v-64h-128v-64h128v-64h64zM384 256v64h-64v-64h64zM192 320h128v448h-64v-384h-64v-64z" />
    <glyph glyph-name="uniFCEE" unicode="&#xfcee;" horiz-adv-x="512" arabic-form="medial" 
d="M256 192v64h-64v-64h64zM512 192v64h-128v-64h128zM256 576v64h-64v-64h64zM128 256h-128v-64h128v64zM128 256h64v128h-64v-128zM384 256v64h-64v-64h64zM320 320v64h-64v-64h64zM192 384h64v64h-64v-64z" />
    <glyph glyph-name="uniFCEF" unicode="&#xfcef;" horiz-adv-x="512" arabic-form="medial" 
d="M512 192v64h-64v-64h64zM320 576v64h-64v-64h64zM192 0v-64h128v192h-64v-128h-64zM192 0v64h-64v-64h64zM128 64v256h-64v-64h-64v-64h64v-128h64zM256 128v256h-64v-256h64zM448 256v128h-64v-128h64zM256 384h128v64h-128v-64z" />
    <glyph glyph-name="uniFCF0" unicode="&#xfcf0;" horiz-adv-x="512" arabic-form="medial" 
d="M320 64v64h-64v-64h64zM448 64v64h-64v-64h64zM256 192v64h-64v-64h64zM512 192v64h-128v-64h128zM128 256h-128v-64h128v64zM128 256h64v128h-64v-128zM384 256v64h-64v-64h64zM320 320v64h-64v-64h64zM192 384h64v64h-64v-64z" />
    <glyph glyph-name="uniFCF1" unicode="&#xfcf1;" horiz-adv-x="512" arabic-form="medial" 
d="M512 0v64h-128v-64h128zM512 192v64h-64v-64h64zM192 0v-64h128v192h-64v-128h-64zM192 0v64h-64v-64h64zM128 64v256h-64v-64h-64v-64h64v-128h64zM256 128v192h-64v-192h64zM448 256v64h-128v-64h128zM256 320h64v64h-64v-64z" />
    <glyph glyph-name="uniFCF2" unicode="&#xfcf2;" horiz-adv-x="512" arabic-form="medial" 
d="M512 192v64h-512v-64h512zM384 768v64h-128v-64h-128v-64h128v64h128zM192 576v-64h64v64h-64zM192 576v64h-64v-64h64zM256 576h64v-64h64v64h-64v64h-64v-64zM384 576h64v128h-64v-128z" />
    <glyph glyph-name="uniFCF3" unicode="&#xfcf3;" horiz-adv-x="512" arabic-form="medial" 
d="M512 192v64h-512v-64h512zM448 640v64h-64v-64h64zM448 768v64h-64v-64h-64v-64h-64v-64h-128v-64h128v64h64v64h64v64h64zM192 448v-64h64v64h-64zM192 448v64h-64v-64h64zM256 448h64v-64h64v64h-64v64h-64v-64zM384 448h64v128h-64v-128zM320 768v64h-64v-64h64z
M320 832h64v64h-64v-64z" />
    <glyph glyph-name="uniFCF4" unicode="&#xfcf4;" horiz-adv-x="512" arabic-form="medial" 
d="M512 192v64h-512v-64h512zM384 576v64h-128v-64h-128v-64h128v64h128zM448 768v64h-64v-64h-64v-64h64v64h64zM128 704v-64h64v64h-64zM128 704v64h-64v-64h64zM192 704h64v64h-64v-64zM256 768h64v64h-64v-64z" />
    <glyph glyph-name="uniFCF5" unicode="&#xfcf5;" horiz-adv-x="512" arabic-form="isolated" 
d="M448 64v64h-64v-64h-256v-64h256v64h64zM512 320v64h-64v-64h-128v64h128v64h-128v192h-64v-448h64v-64h64v64h-64v64h128v64h64zM128 64v192h-64v-192h64z" />
    <glyph glyph-name="uniFCF6" unicode="&#xfcf6;" horiz-adv-x="512" arabic-form="isolated" 
d="M192 -128v64h-64v-64h64zM320 -128v64h-64v-64h64zM448 64v64h-64v-64h-256v-64h256v64h64zM512 320v64h-64v-64h-128v64h128v64h-128v192h-64v-448h64v-64h64v64h-64v64h128v64h64zM128 64v192h-64v-192h64z" />
    <glyph glyph-name="uniFCF7" unicode="&#xfcf7;" horiz-adv-x="512" arabic-form="isolated" 
d="M448 64v64h-64v-64h-256v-64h256v64h64zM448 256v64h-128v-64h-64v-64h64v-64h64v64h-64v64h128zM448 384v64h-128v-64h-64v-64h64v64h128zM128 64v192h-64v-192h64z" />
    <glyph glyph-name="uniFCF8" unicode="&#xfcf8;" horiz-adv-x="512" arabic-form="isolated" 
d="M192 -128v64h-64v-64h64zM320 -128v64h-64v-64h64zM448 64v64h-64v-64h-256v-64h256v64h64zM448 256v64h-128v-64h-64v-64h64v-64h64v64h-64v64h128zM448 384v64h-128v-64h-64v-64h64v64h128zM128 64v192h-64v-192h64z" />
    <glyph glyph-name="uniFCF9" unicode="&#xfcf9;" horiz-adv-x="512" arabic-form="isolated" 
d="M448 64v64h-64v-64h-256v-64h256v64h64zM448 256v64h-128v-64h-64v-64h64v-64h64v64h-64v64h128zM448 384v64h-128v-64h-64v-64h64v64h128zM320 512v64h-64v-64h64zM128 64v192h-64v-192h64z" />
    <glyph glyph-name="uniFCFA" unicode="&#xfcfa;" horiz-adv-x="512" arabic-form="isolated" 
d="M192 -128v64h-64v-64h64zM320 -128v64h-64v-64h64zM448 64v64h-64v-64h-256v-64h256v64h64zM448 256v64h-128v-64h-64v-64h64v-64h64v64h-64v64h128zM448 384v64h-128v-64h-64v-64h64v64h128zM320 512v64h-64v-64h64zM128 64v192h-64v-192h64z" />
    <glyph glyph-name="uniFCFB" unicode="&#xfcfb;" arabic-form="isolated" 
d="M448 64v64h-64v-64h-256v-64h256v64h64zM128 64v192h-64v-192h64zM384 128v64h-64v-64h64zM320 192v192h-64v-192h64zM512 320v-64h192v64h-192zM512 320v64h-64v-64h64zM704 320h64v-64h128v64h-128v128h-64v-128zM896 320h64v128h-64v-128zM320 384h128v64h-128v-64z
" />
    <glyph glyph-name="uniFCFC" unicode="&#xfcfc;" arabic-form="isolated" 
d="M192 -128v64h-64v-64h64zM320 -128v64h-64v-64h64zM448 64v64h-64v-64h-256v-64h256v64h64zM128 64v192h-64v-192h64zM384 128v64h-64v-64h64zM320 192v192h-64v-192h64zM512 320v-64h192v64h-192zM512 320v64h-64v-64h64zM704 320h64v-64h128v64h-128v128h-64v-128z
M896 320h64v128h-64v-128zM320 384h128v64h-128v-64z" />
    <glyph glyph-name="uniFCFD" unicode="&#xfcfd;" arabic-form="isolated" 
d="M448 64v64h-64v-64h-256v-64h256v64h64zM704 576v64h-64v-64h64zM832 576v64h-64v-64h64zM768 704v64h-64v-64h64zM128 64v192h-64v-192h64zM384 128v64h-64v-64h64zM320 192v192h-64v-192h64zM512 320v-64h192v64h-192zM512 320v64h-64v-64h64zM704 320h64v-64h128v64
h-128v128h-64v-128zM896 320h64v128h-64v-128zM320 384h128v64h-128v-64z" />
    <glyph glyph-name="uniFCFE" unicode="&#xfcfe;" arabic-form="isolated" 
d="M192 -128v64h-64v-64h64zM320 -128v64h-64v-64h64zM448 64v64h-64v-64h-256v-64h256v64h64zM704 576v64h-64v-64h64zM832 576v64h-64v-64h64zM768 704v64h-64v-64h64zM128 64v192h-64v-192h64zM384 128v64h-64v-64h64zM320 192v192h-64v-192h64zM512 320v-64h192v64h-192
zM512 320v64h-64v-64h64zM704 320h64v-64h128v64h-128v128h-64v-128zM896 320h64v128h-64v-128zM320 384h128v64h-128v-64z" />
    <glyph glyph-name="uniFCFF" unicode="&#xfcff;" horiz-adv-x="512" arabic-form="isolated" 
d="M448 64v64h-64v-64h-256v-64h256v64h64zM448 384v64h-64v64h-64v-64h-64v-64h-64v-64h-64v-64h128v-64h64v-64h64v64h-64v128h-64v64h192zM128 64v128h-64v-128h64zM320 512v64h-128v-64h128zM128 576h64v64h-128v-128h64v64z" />
    <glyph glyph-name="uniFD00" unicode="&#xfd00;" horiz-adv-x="512" arabic-form="isolated" 
d="M192 -128v64h-64v-64h64zM320 -128v64h-64v-64h64zM448 64v64h-64v-64h-256v-64h256v64h64zM448 384v64h-64v64h-64v-64h-64v-64h-128v-64h128v-128h64v-64h64v64h-64v192h128zM128 64v128h-64v-128h64zM320 512v64h-128v-64h128zM128 576h64v64h-128v-128h64v64z" />
    <glyph glyph-name="uniFD01" unicode="&#xfd01;" horiz-adv-x="512" arabic-form="isolated" 
d="M448 64v64h-64v-64h-256v-64h256v64h64zM512 256v64h-64v-64h64zM448 384v64h-64v64h-64v-64h-64v-64h-128v-64h128v-128h64v-64h64v64h-64v192h128zM128 64v128h-64v-128h64zM320 512v64h-128v-64h128zM128 576h64v64h-128v-128h64v64z" />
    <glyph glyph-name="uniFD02" unicode="&#xfd02;" horiz-adv-x="512" arabic-form="isolated" 
d="M192 -128v64h-64v-64h64zM320 -128v64h-64v-64h64zM448 64v64h-64v-64h-256v-64h256v64h64zM512 256v64h-64v-64h64zM448 384v64h-64v64h-64v-64h-64v-64h-128v-64h128v-128h64v-64h64v64h-64v192h128zM128 64v128h-64v-128h64zM320 512v64h-128v-64h128zM128 576h64v64
h-128v-128h64v64z" />
    <glyph glyph-name="uniFD03" unicode="&#xfd03;" horiz-adv-x="512" arabic-form="isolated" 
d="M448 64v64h-64v-64h-256v-64h256v64h64zM448 384v64h-64v64h-64v-64h-64v-64h-128v-64h128v-128h64v-64h64v64h-64v192h128zM384 640v64h-64v-64h64zM128 64v128h-64v-128h64zM320 512v64h-128v-64h128zM128 576h64v64h-128v-128h64v64z" />
    <glyph glyph-name="uniFD04" unicode="&#xfd04;" horiz-adv-x="512" arabic-form="isolated" 
d="M192 -128v64h-64v-64h64zM320 -128v64h-64v-64h64zM448 64v64h-64v-64h-256v-64h256v64h64zM448 384v64h-64v64h-64v-64h-64v-64h-128v-64h128v-128h64v-64h64v64h-64v192h128zM448 640v64h-64v-64h64zM128 64v128h-64v-128h64zM320 512v64h-128v-64h128zM128 576h64v64
h-128v-128h64v64z" />
    <glyph glyph-name="uniFD05" unicode="&#xfd05;" horiz-adv-x="512" arabic-form="isolated" 
d="M448 64v64h-64v-64h-256v-64h256v64h64zM128 64v128h-64v-128h64zM384 128v64h-64v-64h64zM320 192v64h-64v-64h64zM256 256v128h64v-64h64v64h64v64h-64v128h-64v-128h-128v-192h64zM448 448h64v128h-64v-128zM384 576h64v64h-64v-64z" />
    <glyph glyph-name="uniFD06" unicode="&#xfd06;" horiz-adv-x="512" arabic-form="isolated" 
d="M192 -128v64h-64v-64h64zM320 -128v64h-64v-64h64zM448 64v64h-64v-64h-256v-64h256v64h64zM128 64v128h-64v-128h64zM384 128v64h-64v-64h64zM320 192v64h-64v-64h64zM256 256v128h64v-64h64v64h64v64h-64v128h-64v-128h-128v-192h64zM448 448h64v128h-64v-128zM384 576
h64v64h-64v-64z" />
    <glyph glyph-name="uniFD07" unicode="&#xfd07;" horiz-adv-x="512" arabic-form="isolated" 
d="M448 64v64h-64v-64h-256v-64h256v64h64zM320 640v64h-64v-64h64zM128 64v128h-64v-128h64zM384 128v64h-64v-64h64zM320 192v64h-64v-64h64zM256 256v128h64v-64h64v64h64v64h-64v128h-64v-128h-128v-192h64zM448 448h64v128h-64v-128zM384 576h64v64h-64v-64z" />
    <glyph glyph-name="uniFD08" unicode="&#xfd08;" horiz-adv-x="512" arabic-form="isolated" 
d="M192 -128v64h-64v-64h64zM320 -128v64h-64v-64h64zM448 64v64h-64v-64h-256v-64h256v64h64zM320 640v64h-64v-64h64zM128 64v128h-64v-128h64zM384 128v64h-64v-64h64zM320 192v64h-64v-64h64zM256 256v128h64v-64h64v64h64v64h-64v128h-64v-128h-128v-192h64zM448 448
h64v128h-64v-128zM384 576h64v64h-64v-64z" />
    <glyph glyph-name="uniFD09" unicode="&#xfd09;" horiz-adv-x="512" arabic-form="isolated" 
d="M448 -64v64h-64v-64h-192v-64h192v64h64zM320 64v64h-64v-64h64zM448 256v64h-320v128h-64v-192h64v-64h-64v-192h64v-64h64v64h-64v192h64v64h256zM512 448v64h-64v-64h-64v-64h64v64h64zM320 576v64h-64v-64h64zM448 576v64h-64v-64h64zM384 704v64h-64v-64h64z
M128 448h64v-64h128v64h-128v64h-64v-64zM320 448h64v64h-64v-64z" />
    <glyph glyph-name="uniFD0A" unicode="&#xfd0a;" horiz-adv-x="512" arabic-form="isolated" 
d="M448 -64v64h-64v-64h-192v-64h192v64h64zM448 256v64h-320v128h-64v-192h64v-64h-64v-192h64v-64h64v64h-64v192h64v64h256zM512 448v64h-64v-64h-64v-64h64v64h64zM320 576v64h-64v-64h64zM448 576v64h-64v-64h64zM384 704v64h-64v-64h64zM128 448h64v-64h128v64h-128
v64h-64v-64zM320 448h64v64h-64v-64z" />
    <glyph glyph-name="uniFD0B" unicode="&#xfd0b;" horiz-adv-x="512" arabic-form="isolated" 
d="M448 -64v64h-64v-64h-192v-64h192v64h64zM448 256v64h-320v128h-64v-192h64v-64h-64v-192h64v-64h64v64h-64v192h64v64h256zM512 448v64h-64v-64h-64v-64h64v64h64zM64 512v64h-64v-64h64zM320 576v64h-64v-64h64zM448 576v64h-64v-64h64zM384 704v64h-64v-64h64z
M128 448h64v-64h128v64h-128v64h-64v-64zM320 448h64v64h-64v-64z" />
    <glyph glyph-name="uniFD0C" unicode="&#xfd0c;" horiz-adv-x="512" arabic-form="isolated" 
d="M384 192v64h-192v64h-64v128h-64v-192h64v-64h-64v-320h64v320h256zM512 448v64h-64v-64h-64v-64h64v64h64zM320 576v64h-64v-64h64zM448 576v64h-64v-64h64zM384 704v64h-64v-64h64zM128 448h64v-64h128v64h-128v64h-64v-64zM320 448h64v64h-64v-64z" />
    <glyph glyph-name="uniFD0D" unicode="&#xfd0d;" horiz-adv-x="512" arabic-form="isolated" 
d="M512 384v64h-64v-64h-64v-64h64v64h64zM320 512v64h-64v-64h64zM448 512v64h-64v-64h64zM384 640v64h-64v-64h64zM64 0h-64v-64h64v64zM64 0h64v64h-64v-64zM128 64h64v320h-64v-320zM192 384h64v-64h64v64h-64v64h-64v-64zM320 384h64v64h-64v-64z" />
    <glyph glyph-name="uniFD0E" unicode="&#xfd0e;" horiz-adv-x="512" arabic-form="isolated" 
d="M512 384v64h-64v-64h-64v-64h64v64h64zM64 0h-64v-64h64v64zM64 0h64v64h-64v-64zM128 64h64v320h-64v-320zM192 384h64v-64h64v64h-64v64h-64v-64zM320 384h64v64h-64v-64z" />
    <glyph glyph-name="uniFD0F" unicode="&#xfd0f;" horiz-adv-x="512" arabic-form="isolated" 
d="M64 0h-64v-64h64v64zM64 0h64v64h-64v-64zM128 64h64v320h-64v-320zM320 448v-192h64v128h64v64h-64v128h-64v-64h-64v-64h-64v-64h64v64h64zM448 448h64v128h-64v-128zM384 576h64v64h-64v-64z" />
    <glyph glyph-name="uniFD10" unicode="&#xfd10;" horiz-adv-x="512" arabic-form="isolated" 
d="M320 640v64h-64v-64h64zM64 0h-64v-64h64v64zM64 0h64v64h-64v-64zM128 64h64v320h-64v-320zM320 448v-192h64v128h64v64h-64v128h-64v-64h-64v-64h-64v-64h64v64h64zM448 448h64v128h-64v-128zM384 576h64v64h-64v-64z" />
    <glyph glyph-name="uniFD11" unicode="&#xfd11;" horiz-adv-x="512" arabic-form="final" 
d="M448 64v64h-64v-64h-256v-64h256v64h64zM512 192v64h-64v-64h64zM512 320v64h-64v-64h-128v64h128v64h-128v192h-64v-448h64v-64h64v64h-64v64h128v64h64zM128 64v192h-64v-192h64z" />
    <glyph glyph-name="uniFD12" unicode="&#xfd12;" horiz-adv-x="512" arabic-form="final" 
d="M192 -128v64h-64v-64h64zM320 -128v64h-64v-64h64zM448 64v64h-64v-64h-256v-64h256v64h64zM512 192v64h-64v-64h64zM512 320v64h-64v-64h-128v64h128v64h-128v192h-64v-448h64v-64h64v64h-64v64h128v64h64zM128 64v192h-64v-192h64z" />
    <glyph glyph-name="uniFD13" unicode="&#xfd13;" horiz-adv-x="512" arabic-form="final" 
d="M448 64v64h-64v-64h-256v-64h256v64h64zM512 192v64h-64v-64h64zM512 320v64h-64v-64h-64v64h-64v-128h-64v-64h64v-64h64v64h-64v64h128v64h64zM128 64v192h-64v-192h64zM384 384h64v64h-64v-64z" />
    <glyph glyph-name="uniFD14" unicode="&#xfd14;" horiz-adv-x="512" arabic-form="final" 
d="M192 -128v64h-64v-64h64zM320 -128v64h-64v-64h64zM448 64v64h-64v-64h-256v-64h256v64h64zM512 192v64h-64v-64h64zM512 320v64h-64v-64h-64v64h-64v-128h-64v-64h64v-64h64v64h-64v64h128v64h64zM128 64v192h-64v-192h64zM384 384h64v64h-64v-64z" />
    <glyph glyph-name="uniFD15" unicode="&#xfd15;" horiz-adv-x="512" arabic-form="final" 
d="M448 64v64h-64v-64h-256v-64h256v64h64zM512 192v64h-64v-64h64zM512 320v64h-64v-64h-64v64h-64v-128h-64v-64h64v-64h64v64h-64v64h128v64h64zM384 512v64h-64v-64h64zM128 64v192h-64v-192h64zM384 384h64v64h-64v-64z" />
    <glyph glyph-name="uniFD16" unicode="&#xfd16;" horiz-adv-x="512" arabic-form="final" 
d="M192 -128v64h-64v-64h64zM320 -128v64h-64v-64h64zM448 64v64h-64v-64h-256v-64h256v64h64zM512 192v64h-64v-64h64zM512 320v64h-64v-64h-64v64h-64v-128h-64v-64h64v-64h64v64h-64v64h128v64h64zM384 512v64h-64v-64h64zM128 64v192h-64v-192h64zM384 384h64v64h-64
v-64z" />
    <glyph glyph-name="uniFD17" unicode="&#xfd17;" arabic-form="final" 
d="M448 64v64h-64v-64h-256v-64h256v64h64zM1024 192v64h-64v-64h64zM128 64v192h-64v-192h64zM384 128v64h-64v-64h64zM320 192v128h-64v-128h64zM512 256v-64h192v64h-192zM512 256v64h-64v-64h64zM704 256h64v-64h128v64h-128v128h-64v-128zM896 256h64v128h-64v-128z
M320 320h128v64h-128v-64z" />
    <glyph glyph-name="uniFD18" unicode="&#xfd18;" arabic-form="final" 
d="M192 -128v64h-64v-64h64zM320 -128v64h-64v-64h64zM448 64v64h-64v-64h-256v-64h256v64h64zM1024 192v64h-64v-64h64zM128 64v192h-64v-192h64zM384 128v64h-64v-64h64zM320 192v128h-64v-128h64zM512 256v-64h192v64h-192zM512 256v64h-64v-64h64zM704 256h64v-64h128
v64h-128v128h-64v-128zM896 256h64v128h-64v-128zM320 320h128v64h-128v-64z" />
    <glyph glyph-name="uniFD19" unicode="&#xfd19;" arabic-form="final" 
d="M448 64v64h-64v-64h-256v-64h256v64h64zM1024 192v64h-64v-64h64zM704 512v64h-64v-64h64zM832 512v64h-64v-64h64zM768 640v64h-64v-64h64zM128 64v192h-64v-192h64zM384 128v64h-64v-64h64zM320 192v128h-64v-128h64zM512 256v-64h192v64h-192zM512 256v64h-64v-64h64z
M704 256h64v-64h128v64h-128v128h-64v-128zM896 256h64v128h-64v-128zM320 320h128v64h-128v-64z" />
    <glyph glyph-name="uniFD1A" unicode="&#xfd1a;" arabic-form="final" 
d="M192 -128v64h-64v-64h64zM320 -128v64h-64v-64h64zM448 64v64h-64v-64h-256v-64h256v64h64zM1024 192v64h-64v-64h64zM704 512v64h-64v-64h64zM832 512v64h-64v-64h64zM768 640v64h-64v-64h64zM128 64v192h-64v-192h64zM384 128v64h-64v-64h64zM320 192v128h-64v-128h64z
M512 256v-64h192v64h-192zM512 256v64h-64v-64h64zM704 256h64v-64h128v64h-128v128h-64v-128zM896 256h64v128h-64v-128zM320 320h128v64h-128v-64z" />
    <glyph glyph-name="uniFD1B" unicode="&#xfd1b;" arabic-form="final" 
d="M448 64v64h-64v-64h-256v-64h256v64h64zM1024 192v64h-128v64h-128v-64h-256v-64h512zM128 64v128h-64v-128h64zM384 128v64h-64v-64h64zM320 192v128h-64v-128h64zM512 256v64h-64v-64h64zM320 320h128v64h-128v-64zM768 320v64h-192v-64h192z" />
    <glyph glyph-name="uniFD1C" unicode="&#xfd1c;" arabic-form="final" 
d="M192 -128v64h-64v-64h64zM320 -128v64h-64v-64h64zM448 64v64h-64v-64h-256v-64h256v64h64zM1024 192v64h-128v64h-128v-64h-256v-64h512zM128 64v128h-64v-128h64zM384 128v64h-64v-64h64zM320 192v128h-64v-128h64zM512 256v64h-64v-64h64zM320 320h128v64h-128v-64z
M768 320v64h-192v-64h192z" />
    <glyph glyph-name="uniFD1D" unicode="&#xfd1d;" arabic-form="final" 
d="M448 64v64h-64v-64h-256v-64h256v64h64zM704 64v64h-64v-64h64zM1024 192v64h-128v64h-128v-64h-256v-64h512zM128 64v128h-64v-128h64zM384 128v64h-64v-64h64zM320 192v128h-64v-128h64zM512 256v64h-64v-64h64zM320 320h128v64h-128v-64zM768 320v64h-192v-64h192z
" />
    <glyph glyph-name="uniFD1E" unicode="&#xfd1e;" arabic-form="final" 
d="M192 -128v64h-64v-64h64zM320 -128v64h-64v-64h64zM448 64v64h-64v-64h-256v-64h256v64h64zM704 64v64h-64v-64h64zM1024 192v64h-128v64h-128v-64h-256v-64h512zM128 64v128h-64v-128h64zM384 128v64h-64v-64h64zM320 192v128h-64v-128h64zM512 256v64h-64v-64h64z
M320 320h128v64h-128v-64zM768 320v64h-192v-64h192z" />
    <glyph glyph-name="uniFD1F" unicode="&#xfd1f;" arabic-form="final" 
d="M448 64v64h-64v-64h-256v-64h256v64h64zM1024 192v64h-128v64h-128v-64h-256v-64h512zM640 448v64h-64v-64h64zM128 64v128h-64v-128h64zM384 128v64h-64v-64h64zM320 192v128h-64v-128h64zM512 256v64h-64v-64h64zM320 320h128v64h-128v-64zM768 320v64h-192v-64h192z
" />
    <glyph glyph-name="uniFD20" unicode="&#xfd20;" arabic-form="final" 
d="M192 -128v64h-64v-64h64zM320 -128v64h-64v-64h64zM448 64v64h-64v-64h-256v-64h256v64h64zM1024 192v64h-128v64h-128v-64h-256v-64h512zM704 448v64h-64v-64h64zM128 64v128h-64v-128h64zM384 128v64h-64v-64h64zM320 192v128h-64v-128h64zM512 256v64h-64v-64h64z
M320 320h128v64h-128v-64zM768 320v64h-192v-64h192z" />
    <glyph glyph-name="uniFD21" unicode="&#xfd21;" horiz-adv-x="512" arabic-form="final" 
d="M320 64v64h-64v-64h-192v-64h192v64h64zM512 256v64h-64v-64h64zM64 64v128h-64v-128h64zM256 128v64h-64v-64h64zM192 192v128h64v-64h64v64h128v192h-64v-128h-64v128h-64v-128h-128v-192h64zM320 512h64v64h-64v-64z" />
    <glyph glyph-name="uniFD22" unicode="&#xfd22;" horiz-adv-x="512" arabic-form="final" 
d="M128 -128v64h-64v-64h64zM256 -128v64h-64v-64h64zM320 64v64h-64v-64h-192v-64h192v64h64zM512 256v64h-64v-64h64zM64 64v128h-64v-128h64zM256 128v64h-64v-64h64zM192 192v128h64v-64h64v64h128v192h-64v-128h-64v128h-64v-128h-128v-192h64zM320 512h64v64h-64v-64z
" />
    <glyph glyph-name="uniFD23" unicode="&#xfd23;" horiz-adv-x="512" arabic-form="final" 
d="M320 64v64h-64v-64h-192v-64h192v64h64zM512 256v64h-64v-64h64zM256 576v64h-64v-64h64zM64 64v128h-64v-128h64zM256 128v64h-64v-64h64zM192 192v128h64v-64h64v64h128v192h-64v-128h-64v128h-64v-128h-128v-192h64zM320 512h64v64h-64v-64z" />
    <glyph glyph-name="uniFD24" unicode="&#xfd24;" horiz-adv-x="512" arabic-form="final" 
d="M128 -128v64h-64v-64h64zM256 -128v64h-64v-64h64zM320 64v64h-64v-64h-192v-64h192v64h64zM512 256v64h-64v-64h64zM256 576v64h-64v-64h64zM64 64v128h-64v-128h64zM256 128v64h-64v-64h64zM192 192v128h64v-64h64v64h128v192h-64v-128h-64v128h-64v-128h-128v-192h64z
M320 512h64v64h-64v-64z" />
    <glyph glyph-name="uniFD25" unicode="&#xfd25;" horiz-adv-x="512" arabic-form="final" 
d="M384 -64v64h-64v-64h-192v-64h192v64h64zM256 0v64h-64v-64h64zM384 128v64h-320v128h-64v-192h64v-64h-64v-64h64v-64h64v64h-64v64h64v64h256zM512 192v64h-64v-64h64zM192 448v64h-64v-64h64zM320 448v64h-64v-64h64zM256 576v64h-64v-64h64zM448 256v64h-64v-64h64z
M64 320h64v-64h64v64h-64v64h-64v-64zM192 320h64v-64h64v64h-64v64h-64v-64zM320 320h64v64h-64v-64z" />
    <glyph glyph-name="uniFD26" unicode="&#xfd26;" horiz-adv-x="512" arabic-form="final" 
d="M384 -64v64h-64v-64h-192v-64h192v64h64zM384 128v64h-320v128h-64v-192h64v-64h-64v-64h64v-64h64v64h-64v64h64v64h256zM512 192v64h-64v-64h64zM192 448v64h-64v-64h64zM320 448v64h-64v-64h64zM256 576v64h-64v-64h64zM448 256v64h-64v-64h64zM64 320h64v-64h64v64
h-64v64h-64v-64zM192 320h64v-64h64v64h-64v64h-64v-64zM320 320h64v64h-64v-64z" />
    <glyph glyph-name="uniFD27" unicode="&#xfd27;" horiz-adv-x="512" arabic-form="final" 
d="M384 -64v64h-64v-64h-192v-64h192v64h64zM384 128v64h-320v128h-64v-192h64v-64h-64v-64h64v-64h64v64h-64v64h64v64h256zM512 192v64h-64v-64h64zM64 448v64h-64v-64h64zM192 448v64h-64v-64h64zM320 448v64h-64v-64h64zM256 576v64h-64v-64h64zM448 256v64h-64v-64h64z
M64 320h64v-64h64v64h-64v64h-64v-64zM192 320h64v-64h64v64h-64v64h-64v-64zM320 320h64v64h-64v-64z" />
    <glyph glyph-name="uniFD28" unicode="&#xfd28;" horiz-adv-x="512" arabic-form="final" 
d="M256 64v64h-128v64h-64v128h-64v-192h64v-64h-64v-192h64v192h192zM512 256v64h-64v-64h64zM256 448v64h-64v-64h64zM384 448v64h-64v-64h64zM320 576v64h-64v-64h64zM64 320h64v-64h128v64h-128v64h-64v-64zM256 320h64v-64h64v64h-64v64h-64v-64zM384 320h64v64h-64
v-64z" />
    <glyph glyph-name="uniFD29" unicode="&#xfd29;" horiz-adv-x="512" arabic-form="final" 
d="M512 192v64h-64v-64h-64v-64h64v64h64zM320 320v64h-64v-64h64zM448 320v64h-64v-64h64zM384 448v64h-64v-64h64zM64 -64h-64v-64h64v64zM64 -64h64v64h-64v-64zM128 0h64v192h-64v-192zM192 192h64v-64h64v64h-64v64h-64v-64zM320 192h64v64h-64v-64z" />
    <glyph glyph-name="uniFD2A" unicode="&#xfd2a;" horiz-adv-x="512" arabic-form="final" 
d="M512 192v64h-64v-64h-64v-64h64v64h64zM64 -64h-64v-64h64v64zM64 -64h64v64h-64v-64zM128 0h64v192h-64v-192zM192 192h64v-64h64v64h-64v64h-64v-64zM320 192h64v64h-64v-64z" />
    <glyph glyph-name="uniFD2B" unicode="&#xfd2b;" horiz-adv-x="512" arabic-form="final" 
d="M64 0h-64v-64h64v64zM64 0h64v64h-64v-64zM128 64h64v128h-64v-128zM320 256v-192h64v128h64v64h-64v128h-64v-64h-64v-64h-64v-64h64v64h64zM448 256h64v128h-64v-128zM384 384h64v64h-64v-64z" />
    <glyph glyph-name="uniFD2C" unicode="&#xfd2c;" horiz-adv-x="512" arabic-form="final" 
d="M256 384v64h-64v-64h64zM64 0h-64v-64h64v64zM64 0h64v64h-64v-64zM128 64h64v128h-64v-128zM320 256v-192h64v128h64v64h-64v128h-64v-64h-64v-64h-64v-64h64v64h64zM448 256h64v128h-64v-128zM384 384h64v64h-64v-64z" />
    <glyph glyph-name="uniFD2D" unicode="&#xfd2d;" arabic-form="initial" 
d="M320 128v64h-64v-64h64zM576 384v64h-384v64h-64v-64h-64v-64h128v-64h-128v-64h-64v-64h64v64h128v64h128v64h256zM896 576v64h-64v-64h-128v-64h128v64h64zM640 704v64h-64v-64h64zM768 704v64h-64v-64h64zM704 832v64h-64v-64h64zM192 512h64v64h-64v-64zM256 576h64
v64h-64v-64zM448 576v-64h192v64h-192zM448 576v64h-64v-64h64zM640 576h64v64h-64v-64zM320 640h64v64h-64v-64z" />
    <glyph glyph-name="uniFD2E" unicode="&#xfd2e;" arabic-form="initial" 
d="M576 384v64h-384v64h-64v-64h-64v-64h128v-64h-128v-64h-64v-64h64v64h128v64h128v64h256zM896 576v64h-64v-64h-128v-64h128v64h64zM640 704v64h-64v-64h64zM768 704v64h-64v-64h64zM704 832v64h-64v-64h64zM192 512h64v64h-64v-64zM256 576h64v64h-64v-64zM448 576v-64
h192v64h-192zM448 576v64h-64v-64h64zM640 576h64v64h-64v-64zM320 640h64v64h-64v-64z" />
    <glyph glyph-name="uniFD2F" unicode="&#xfd2f;" arabic-form="initial" 
d="M576 384v64h-384v64h-64v-64h-64v-64h128v-64h-128v-64h-64v-64h64v64h128v64h128v64h256zM896 576v64h-64v-64h-128v-64h128v64h64zM192 640v64h-64v-64h64zM640 704v64h-64v-64h64zM768 704v64h-64v-64h64zM704 832v64h-64v-64h64zM192 512h64v64h-64v-64zM256 576h64
v64h-64v-64zM448 576v-64h192v64h-192zM448 576v64h-64v-64h64zM640 576h64v64h-64v-64zM320 640h64v64h-64v-64z" />
    <glyph glyph-name="uniFD30" unicode="&#xfd30;" arabic-form="initial" 
d="M320 192v64h-64v-64h64zM896 448v64h-64v-64h-128v-64h128v64h64zM640 576v64h-64v-64h64zM768 576v64h-64v-64h64zM704 704v64h-64v-64h64zM64 256h-64v-64h64v64zM64 256h192v64h-64v64h-64v-64h-64v-64zM192 384h64v64h-64v-64zM256 448h64v64h-64v-64zM448 448v-64
h192v64h-192zM448 448v64h-64v-64h64zM640 448h64v64h-64v-64zM320 512h64v64h-64v-64z" />
    <glyph glyph-name="uniFD31" unicode="&#xfd31;" arabic-form="initial" 
d="M896 384v64h-64v-64h-128v-64h128v64h64zM256 0v-64h128v192h-64v-128h-64zM256 0v64h-64v-64h64zM192 64v320h-64v-64h-64v-64h-64v-64h128v-128h64zM320 128v128h-64v-128h64zM320 256h64v64h-64v-64zM384 320h256v64h-256v-64zM640 384h64v64h-64v-64z" />
    <glyph glyph-name="uniFD32" unicode="&#xfd32;" arabic-form="initial" 
d="M896 384v64h-64v-64h-128v-64h128v64h64zM640 512v64h-64v-64h64zM768 512v64h-64v-64h64zM704 640v64h-64v-64h64zM256 0v-64h128v192h-64v-128h-64zM256 0v64h-64v-64h64zM192 64v320h-64v-64h-64v-64h-64v-64h128v-128h64zM320 128v128h-64v-128h64zM320 256h64v64
h-64v-64zM384 320h256v64h-256v-64zM640 384h64v64h-64v-64z" />
    <glyph glyph-name="uniFD33" unicode="&#xfd33;" horiz-adv-x="512" arabic-form="initial" 
d="M256 192v64h-64v-64h-64v-64h64v64h64zM512 384v64h-64v-64h-128v64h-64v256h-64v-384h-64v-64h-128v-64h128v64h64v64h256v64h64zM320 448h128v64h-128v-64z" />
    <glyph glyph-name="uniFD34" unicode="&#xfd34;" arabic-form="medial" 
d="M256 64v64h-64v-64h64zM1024 192v64h-64v-64h64zM320 256h-320v-64h704v64h-128v128h-64v-128h-128v64h-64v-64zM704 256h64v-64h128v64h-128v128h-64v-128zM896 256h64v128h-64v-128zM320 320v64h-64v-64h64zM192 384h-64v-64h64v64zM192 384h64v64h-64v-64z" />
    <glyph glyph-name="uniFD35" unicode="&#xfd35;" arabic-form="medial" 
d="M1024 192v64h-64v-64h64zM320 256h-320v-64h704v64h-128v128h-64v-128h-128v64h-64v-64zM704 256h64v-64h128v64h-128v128h-64v-128zM896 256h64v128h-64v-128zM320 320v64h-64v-64h64zM192 384h-64v-64h64v64zM192 384h64v64h-64v-64z" />
    <glyph glyph-name="uniFD36" unicode="&#xfd36;" arabic-form="medial" 
d="M1024 192v64h-64v-64h64zM256 512v64h-64v-64h64zM320 256h-320v-64h704v64h-128v128h-64v-128h-128v64h-64v-64zM704 256h64v-64h128v64h-128v128h-64v-128zM896 256h64v128h-64v-128zM320 320v64h-64v-64h64zM192 384h-64v-64h64v64zM192 384h64v64h-64v-64z" />
    <glyph glyph-name="uniFD37" unicode="&#xfd37;" arabic-form="medial" 
d="M256 64v64h-64v-64h64zM1024 192v64h-64v-64h64zM704 448v64h-64v-64h64zM832 448v64h-64v-64h64zM768 576v64h-64v-64h64zM320 256h-320v-64h704v64h-128v128h-64v-128h-128v64h-64v-64zM704 256h64v-64h128v64h-128v128h-64v-128zM896 256h64v128h-64v-128zM320 320v64
h-64v-64h64zM192 384h-64v-64h64v64zM192 384h64v64h-64v-64z" />
    <glyph glyph-name="uniFD38" unicode="&#xfd38;" arabic-form="medial" 
d="M1024 192v64h-64v-64h64zM704 448v64h-64v-64h64zM832 448v64h-64v-64h64zM768 576v64h-64v-64h64zM320 256h-320v-64h704v64h-128v128h-64v-128h-128v64h-64v-64zM704 256h64v-64h128v64h-128v128h-64v-128zM896 256h64v128h-64v-128zM320 320v64h-64v-64h64zM192 384
h-64v-64h64v64zM192 384h64v64h-64v-64z" />
    <glyph glyph-name="uniFD39" unicode="&#xfd39;" arabic-form="medial" 
d="M1024 192v64h-64v-64h64zM704 448v64h-64v-64h64zM832 448v64h-64v-64h64zM256 512v64h-64v-64h64zM768 576v64h-64v-64h64zM320 256h-320v-64h704v64h-128v128h-64v-128h-128v64h-64v-64zM704 256h64v-64h128v64h-128v128h-64v-128zM896 256h64v128h-64v-128zM320 320
v64h-64v-64h64zM192 384h-64v-64h64v64zM192 384h64v64h-64v-64z" />
    <glyph glyph-name="uniFD3A" unicode="&#xfd3a;" horiz-adv-x="512" arabic-form="medial" 
d="M256 192v64h-64v-64h-64v-64h64v64h64zM512 192v64h-64v-64h64zM512 384v64h-64v-64h-128v64h-64v256h-64v-384h-64v-64h-128v-64h128v64h64v64h192v-64h64v128h64zM320 448h128v64h-128v-64z" />
    <glyph glyph-name="uniFD3B" unicode="&#xfd3b;" horiz-adv-x="512" arabic-form="medial" 
d="M256 192v64h-64v-64h-64v-64h64v64h64zM512 192v64h-64v-64h64zM512 384v64h-64v-64h-128v64h-64v256h-64v-384h-64v-64h-128v-64h128v64h64v64h192v-64h64v128h64zM448 576v64h-64v-64h64zM320 448h128v64h-128v-64z" />
    <glyph glyph-name="uniFD3C" unicode="&#xfd3c;" horiz-adv-x="512" arabic-form="final" 
d="M512 192v64h-256v-64h256zM512 640v64h-64v-64h-64v-64h-64v-64h64v64h64v64h64zM512 832v64h-64v-64h-64v-64h-64v-64h64v64h64v64h64zM256 256v448h-64v-448h64z" />
    <glyph glyph-name="uniFD3D" unicode="&#xfd3d;" horiz-adv-x="512" arabic-form="isolated" 
d="M512 640v64h-64v-64h-64v-64h-64v-64h64v64h64v64h64zM512 832v64h-64v-64h-64v-64h-64v-64h64v64h64v64h64zM192 704v-512h64v512h-64z" />
    <glyph glyph-name="uniFD50" unicode="&#xfd50;" arabic-form="initial" 
d="M512 64v64h-64v-64h64zM704 448v64h-64v-64h64zM832 448v64h-64v-64h64zM128 128v-64h64v64h-64zM128 128v64h64v-64h64v64h640v192h-64v-128h-256v64h-64v-64h-512v-64h64v-64h64zM512 320v64h-64v-64h64zM384 384h-64v-64h64v64zM384 384h64v64h-64v-64z" />
    <glyph glyph-name="uniFD51" unicode="&#xfd51;" arabic-form="final" 
d="M448 -64v64h-64v-64h-128v-64h128v64h64zM384 64v64h-64v-64h64zM1024 192v64h-64v128h-64v-128h-192v64h-64v-64h-256v-64h640zM768 448v64h-64v-64h64zM896 448v64h-64v-64h64zM256 -64v64h-64v-64h64zM192 0v128h-64v-128h64zM192 128h64v64h-64v-64zM256 192h64v64
h-64v-64zM320 256h64v64h-64v-64zM320 320v64h-64v-64h64zM640 320v64h-64v-64h64zM192 384h-64v-64h64v64zM192 384h64v64h-64v-64zM512 384h-64v-64h64v64zM512 384h64v64h-64v-64z" />
    <glyph glyph-name="uniFD52" unicode="&#xfd52;" arabic-form="initial" 
d="M192 64v64h-64v-64h64zM704 448v64h-64v-64h64zM832 448v64h-64v-64h64zM256 256h-256v-64h896v192h-64v-128h-192v64h-64v-64h-256v64h-64v-64zM256 320v64h-64v-64h64zM576 320v64h-64v-64h64zM128 384h-64v-64h64v64zM128 384h64v64h-64v-64zM448 384h-64v-64h64v64z
M448 384h64v64h-64v-64z" />
    <glyph glyph-name="uniFD53" unicode="&#xfd53;" arabic-form="initial" 
d="M704 448v64h-64v-64h64zM832 448v64h-64v-64h64zM128 128v-64h64v64h-64zM128 128v64h64v-64h64v64h640v192h-64v-128h-256v64h-64v-64h-512v-64h64v-64h64zM512 320v64h-64v-64h64zM384 384h-64v-64h64v64zM384 384h64v64h-64v-64z" />
    <glyph glyph-name="uniFD54" unicode="&#xfd54;" arabic-form="initial" 
d="M704 448v64h-64v-64h64zM832 448v64h-64v-64h64zM448 512v64h-64v-64h64zM192 128v-64h64v64h-64zM192 128v64h64v-64h64v64h576v192h-64v-128h-256v64h-64v-64h-512v-64h128v-64h64zM512 320v64h-64v-64h64zM384 384h-64v-64h64v64zM384 384h64v64h-64v-64z" />
    <glyph glyph-name="uniFD55" unicode="&#xfd55;" arabic-form="initial" 
d="M192 64v64h-64v-64h64zM704 448v64h-64v-64h64zM832 448v64h-64v-64h64zM448 128v-64h64v64h-64zM448 128v64h64v-64h64v64h320v192h-64v-128h-512v64h-64v-64h-256v-64h384v-64h64zM256 320v64h-64v-64h64zM128 384h-64v-64h64v64zM128 384h64v64h-64v-64z" />
    <glyph glyph-name="uniFD56" unicode="&#xfd56;" arabic-form="initial" 
d="M704 448v64h-64v-64h64zM832 448v64h-64v-64h64zM448 128v-64h64v64h-64zM448 128v64h64v-64h64v64h320v192h-64v-128h-512v64h-64v-64h-256v-64h384v-64h64zM256 320v64h-64v-64h64zM128 384h-64v-64h64v64zM128 384h64v64h-64v-64z" />
    <glyph glyph-name="uniFD57" unicode="&#xfd57;" arabic-form="initial" 
d="M192 64v64h-64v-64h64zM704 448v64h-64v-64h64zM832 448v64h-64v-64h64zM448 128v-64h64v64h-64zM448 128v64h64v-64h64v64h320v192h-64v-128h-512v64h-64v-64h-256v-64h384v-64h64zM256 320v64h-64v-64h64zM128 384h-64v-64h64v64zM128 384h64v64h-64v-64z" />
    <glyph glyph-name="uniFD58" unicode="&#xfd58;" arabic-form="final" 
d="M384 -64v64h-64v-64h-128v-64h128v64h64zM832 64v64h-64v-64h64zM1024 192v64h-64v64h-64v-64h-576v-64h128v-64h64v-64h64v64h-64v64h64v-64h64v64h384zM192 -64v64h-64v-64h64zM128 0v128h-64v-128h64zM128 128h64v64h-64v-64zM192 192h64v64h-64v-64zM256 256h64v64
h-64v-64zM256 320v64h-64v-64h64zM896 320v64h-64v-64h64zM128 384h-64v-64h64v64zM128 384h64v64h-64v-64zM768 384h-64v-64h64v64zM768 384h64v64h-64v-64z" />
    <glyph glyph-name="uniFD59" unicode="&#xfd59;" arabic-form="initial" 
d="M768 64v64h-64v-64h64zM448 128v-64h64v64h-64zM448 128v64h64v-64h64v64h320v128h-64v-64h-512v64h-64v-64h-256v-64h384v-64h64zM256 320v64h-64v-64h64zM832 320v64h-64v-64h64zM128 384h-64v-64h64v64zM128 384h64v64h-64v-64zM704 384h-64v-64h64v64zM704 384h64v64
h-64v-64z" />
    <glyph glyph-name="uniFD5A" unicode="&#xfd5a;" arabic-form="final" 
d="M192 -128v64h-64v-64h64zM320 -128v64h-64v-64h64zM384 64v64h-64v-64h-192v-64h192v64h64zM1024 192v64h-64v64h-64v-64h-512v-64h128v-64h64v-64h64v64h-64v64h64v-64h64v64h320zM128 64v320h-64v-320h64zM320 128v64h-64v-64h64zM256 192v128h-64v-128h64zM384 256v64
h-64v-64h64zM256 320h64v64h-64v-64zM896 320v64h-64v-64h64zM768 384h-64v-64h64v64zM768 384h64v64h-64v-64z" />
    <glyph glyph-name="uniFD5B" unicode="&#xfd5b;" arabic-form="final" 
d="M384 64v64h-64v-64h-192v-64h192v64h64zM1024 192v64h-64v64h-64v-64h-512v-64h128v-64h64v-64h64v64h-64v64h64v-64h64v64h320zM128 64v320h-64v-320h64zM320 128v64h-64v-64h64zM256 192v128h-64v-128h64zM384 256v64h-64v-64h64zM256 320h64v64h-64v-64zM896 320v64
h-64v-64h64zM768 384h-64v-64h64v64zM768 384h64v64h-64v-64z" />
    <glyph glyph-name="uniFD5C" unicode="&#xfd5c;" arabic-form="initial" 
d="M192 64v64h-64v-64h64zM256 256h-256v-64h1024v192h-64v-128h-64v128h-64v-128h-64v128h-64v-128h-64v64h-64v-64h-256v64h-64v-64zM256 320v64h-64v-64h64zM576 320v64h-64v-64h64zM128 384h-64v-64h64v64zM128 384h64v64h-64v-64zM448 384h-64v-64h64v64zM448 384h64
v64h-64v-64z" />
    <glyph glyph-name="uniFD5D" unicode="&#xfd5d;" arabic-form="initial" 
d="M512 64v64h-64v-64h64zM256 256h-256v-64h1024v192h-64v-128h-64v128h-64v-128h-64v128h-64v-128h-64v64h-64v-64h-256v64h-64v-64zM256 320v64h-64v-64h64zM576 320v64h-64v-64h64zM128 384h-64v-64h64v64zM128 384h64v64h-64v-64zM448 384h-64v-64h64v64zM448 384h64
v64h-64v-64z" />
    <glyph glyph-name="uniFD5E" unicode="&#xfd5e;" arabic-form="final" 
d="M320 64v64h-64v-64h-192v-64h192v64h64zM512 64v64h-64v-64h64zM64 64v320h-64v-320h64zM256 128v64h-64v-64h64zM192 192v128h-64v-128h64zM320 256v-64h704v192h-64v-128h-64v128h-64v-128h-64v128h-64v-128h-64v64h-64v-64h-256zM320 256v64h-64v-64h64zM192 320h64
v64h-64v-64zM576 320v64h-64v-64h64zM448 384h-64v-64h64v64zM448 384h64v64h-64v-64z" />
    <glyph glyph-name="uniFD5F" unicode="&#xfd5f;" arabic-form="final" 
d="M320 -64v64h-64v-64h-128v-64h128v64h64zM1024 192v64h-64v128h-64v-128h-64v128h-64v-128h-64v128h-64v-128h-384v-64h64v-64h64v-64h64v64h-64v64h64v-64h64v64h512zM128 -64v64h-64v-64h64zM64 0v128h-64v-128h64zM64 128h64v64h-64v-64zM128 192h64v64h-64v-64z
M192 256h64v64h-64v-64zM192 320v64h-64v-64h64zM64 384h-64v-64h64v64zM64 384h64v64h-64v-64z" />
    <glyph glyph-name="uniFD60" unicode="&#xfd60;" arabic-form="initial" 
d="M448 128v-64h64v64h-64zM448 128v64h64v-64h64v64h384v192h-64v-128h-64v128h-64v-128h-64v128h-64v-128h-320v64h-64v-64h-256v-64h384v-64h64zM256 320v64h-64v-64h64zM128 384h-64v-64h64v64zM128 384h64v64h-64v-64z" />
    <glyph glyph-name="uniFD61" unicode="&#xfd61;" arabic-form="initial" 
d="M192 64v64h-64v-64h64zM448 128v-64h64v64h-64zM448 128v64h64v-64h64v64h384v192h-64v-128h-64v128h-64v-128h-64v128h-64v-128h-320v64h-64v-64h-256v-64h384v-64h64zM256 320v64h-64v-64h64zM128 384h-64v-64h64v64zM128 384h64v64h-64v-64z" />
    <glyph glyph-name="uniFD62" unicode="&#xfd62;" arabic-form="final" 
d="M1024 192v64h-64v128h-64v-128h-64v128h-64v-128h-64v128h-64v-128h-320v64h-64v-64h-192v-320h64v256h256v-64h64v-64h64v64h-64v64h64v-64h64v64h448zM256 320v64h-64v-64h64zM128 384h-64v-64h64v64zM128 384h64v64h-64v-64z" />
    <glyph glyph-name="uniFD63" unicode="&#xfd63;" arabic-form="initial" 
d="M192 128v-64h64v64h-64zM192 128v64h64v-64h64v64h64v-64h64v-64h64v64h-64v64h64v-64h64v64h384v192h-64v-128h-64v128h-64v-128h-64v128h-64v-128h-640v-64h128v-64h64z" />
    <glyph glyph-name="uniFD64" unicode="&#xfd64;" arabic-form="final" 
d="M320 -64v64h-64v-64h-128v-64h128v64h64zM1024 192v64h-64v128h-64v-128h-64v-64h192zM128 -64v64h-64v-64h64zM64 0v128h-64v-128h64zM64 128h64v64h-64v-64zM128 192h64v64h-64v-64zM192 256h64v-64h384v64h-64v64h-64v-64h-256v64h-64v-64zM640 256h64v-64h64v64h-64
v128h-64v-128zM768 256h64v128h-64v-128zM192 320v64h-64v-64h64zM512 320v64h-64v-64h64zM64 384h-64v-64h64v64zM64 384h64v64h-64v-64zM384 384h-64v-64h64v64zM384 384h64v64h-64v-64zM832 384h64v64h-64v-64z" />
    <glyph glyph-name="uniFD65" unicode="&#xfd65;" arabic-form="initial" 
d="M256 256h-256v-64h704v64h-64v64h-64v-64h-256v64h-64v-64zM704 256h64v-64h192v64h-64v128h-64v-128h-64v128h-64v-128zM960 256h64v128h-64v-128zM256 320v64h-64v-64h64zM576 320v64h-64v-64h64zM128 384h-64v-64h64v64zM128 384h64v64h-64v-64zM448 384h-64v-64h64
v64zM448 384h64v64h-64v-64zM896 384h64v64h-64v-64z" />
    <glyph glyph-name="uniFD66" unicode="&#xfd66;" arabic-form="final" 
d="M1024 192v64h-64v128h-64v-128h-64v-64h192zM64 256v-320h64v256h256v-64h64v-64h64v64h-64v64h64v-64h64v64h64v64h-320v64h-64v-64h-192zM640 256h64v-64h64v64h-64v128h-64v-128zM768 256h64v128h-64v-128zM256 320v64h-64v-64h64zM128 384h-64v-64h64v64zM128 384h64
v64h-64v-64zM832 384h64v64h-64v-64z" />
    <glyph glyph-name="uniFD67" unicode="&#xfd67;" arabic-form="final" 
d="M1024 192v64h-64v128h-64v-128h-64v128h-64v-128h-64v128h-64v-128h-64v64h-64v-64h-256v64h-64v-64h-192v-320h64v256h960zM768 448v64h-64v-64h64zM896 448v64h-64v-64h64zM832 576v64h-64v-64h64zM192 320v64h-64v-64h64zM512 320v64h-64v-64h64zM64 384h-64v-64h64
v64zM64 384h64v64h-64v-64zM384 384h-64v-64h64v64zM384 384h64v64h-64v-64z" />
    <glyph glyph-name="uniFD68" unicode="&#xfd68;" arabic-form="initial" 
d="M768 448v64h-64v-64h64zM896 448v64h-64v-64h64zM832 576v64h-64v-64h64zM192 128v-64h64v64h-64zM192 128v64h64v-64h64v64h640v192h-64v-128h-64v128h-64v-128h-64v128h-64v-128h-64v64h-64v-64h-512v-64h128v-64h64zM512 320v64h-64v-64h64zM384 384h-64v-64h64v64z
M384 384h64v64h-64v-64z" />
    <glyph glyph-name="uniFD69" unicode="&#xfd69;" arabic-form="final" 
d="M128 -128v64h-64v-64h64zM256 -128v64h-64v-64h64zM320 64v64h-64v-64h-192v-64h192v64h64zM512 64v64h-64v-64h64zM832 448v64h-64v-64h64zM960 448v64h-64v-64h64zM896 576v64h-64v-64h64zM64 64v320h-64v-320h64zM256 128v64h-64v-64h64zM192 192v128h-64v-128h64z
M320 256v-64h704v192h-64v-128h-64v128h-64v-128h-64v128h-64v-128h-64v64h-64v-64h-256zM320 256v64h-64v-64h64zM192 320h64v64h-64v-64zM576 320v64h-64v-64h64zM448 384h-64v-64h64v64zM448 384h64v64h-64v-64z" />
    <glyph glyph-name="uniFD6A" unicode="&#xfd6a;" arabic-form="final" 
d="M384 -64v64h-64v-64h-128v-64h128v64h64zM1024 192v64h-64v128h-64v-128h-64v128h-64v-128h-64v128h-64v-128h-320v-64h64v-64h64v-64h64v64h-64v64h64v-64h64v64h448zM768 448v64h-64v-64h64zM896 448v64h-64v-64h64zM192 512v64h-64v-64h64zM832 576v64h-64v-64h64z
M192 -64v64h-64v-64h64zM128 0v128h-64v-128h64zM128 128h64v64h-64v-64zM192 192h64v64h-64v-64zM256 256h64v64h-64v-64zM256 320v64h-64v-64h64zM128 384h-64v-64h64v64zM128 384h64v64h-64v-64z" />
    <glyph glyph-name="uniFD6B" unicode="&#xfd6b;" arabic-form="initial" 
d="M768 448v64h-64v-64h64zM896 448v64h-64v-64h64zM192 512v64h-64v-64h64zM832 576v64h-64v-64h64zM448 128v-64h64v64h-64zM448 128v64h64v-64h64v64h384v192h-64v-128h-64v128h-64v-128h-64v128h-64v-128h-320v64h-64v-64h-256v-64h384v-64h64zM256 320v64h-64v-64h64z
M128 384h-64v-64h64v64zM128 384h64v64h-64v-64z" />
    <glyph glyph-name="uniFD6C" unicode="&#xfd6c;" arabic-form="final" 
d="M1024 192v64h-64v128h-64v-128h-64v128h-64v-128h-64v128h-64v-128h-320v64h-64v-64h-192v-320h64v256h256v-64h64v-64h64v64h-64v64h64v-64h64v64h448zM768 448v64h-64v-64h64zM896 448v64h-64v-64h64zM832 576v64h-64v-64h64zM256 320v64h-64v-64h64zM128 384h-64v-64
h64v64zM128 384h64v64h-64v-64z" />
    <glyph glyph-name="uniFD6D" unicode="&#xfd6d;" arabic-form="initial" 
d="M768 448v64h-64v-64h64zM896 448v64h-64v-64h64zM832 576v64h-64v-64h64zM192 128v-64h64v64h-64zM192 128v64h64v-64h64v64h64v-64h64v-64h64v64h-64v64h64v-64h64v64h384v192h-64v-128h-64v128h-64v-128h-64v128h-64v-128h-640v-64h128v-64h64z" />
    <glyph glyph-name="uniFD6E" unicode="&#xfd6e;" arabic-form="final" 
d="M320 64v64h-64v-64h-192v-64h192v64h64zM960 512v64h-64v-64h64zM64 64v320h-64v-320h64zM256 128v64h-64v-64h64zM192 192v128h-64v-128h64zM320 256v-64h384v64h-64v64h-64v-64h-256zM320 256v64h-64v-64h64zM704 256h64v-64h64v64h-64v128h-64v-128zM832 256h64v-64
h128v192h-64v-128h-64v128h-64v-128zM192 320h64v64h-64v-64zM576 320v64h-64v-64h64zM448 384h-64v-64h64v64zM448 384h64v64h-64v-64zM896 384h64v64h-64v-64z" />
    <glyph glyph-name="uniFD6F" unicode="&#xfd6f;" arabic-form="final" 
d="M1024 192v64h-64v128h-64v-128h-64v-64h192zM896 512v64h-64v-64h64zM0 256v-320h64v256h576v64h-64v64h-64v-64h-256v64h-64v-64h-192zM640 256h64v-64h64v64h-64v128h-64v-128zM768 256h64v128h-64v-128zM192 320v64h-64v-64h64zM512 320v64h-64v-64h64zM64 384h-64
v-64h64v64zM64 384h64v64h-64v-64zM384 384h-64v-64h64v64zM384 384h64v64h-64v-64zM832 384h64v64h-64v-64z" />
    <glyph glyph-name="uniFD70" unicode="&#xfd70;" arabic-form="initial" 
d="M448 512v64h-64v-64h64zM896 512v64h-64v-64h64zM192 128v-64h64v64h-64zM192 128v64h64v-64h64v64h320v64h-64v64h-64v-64h-512v-64h128v-64h64zM640 256h64v-64h64v64h-64v128h-64v-128zM768 256h64v-64h64v64h-64v128h-64v-128zM896 256h64v128h-64v-128zM512 320v64
h-64v-64h64zM384 384h-64v-64h64v64zM384 384h64v64h-64v-64zM832 384h64v64h-64v-64z" />
    <glyph glyph-name="uniFD71" unicode="&#xfd71;" arabic-form="final" 
d="M384 -64v64h-64v-64h-128v-64h128v64h64zM1024 192v64h-64v64h-64v-64h-128v64h-64v256h-64v-320h-320v-64h64v-64h64v-64h64v64h-64v64h64v-64h64v64h448zM192 -64v64h-64v-64h64zM128 0v128h-64v-128h64zM128 128h64v64h-64v-64zM192 192h64v64h-64v-64zM256 256h64v64
h-64v-64zM256 320v64h-64v-64h64zM768 320h128v64h-128v-64zM128 384h-64v-64h64v64zM128 384h64v64h-64v-64z" />
    <glyph glyph-name="uniFD72" unicode="&#xfd72;" arabic-form="initial" 
d="M960 256v64h-64v-64h-128v64h-64v256h-64v-320h-320v64h-64v-64h-256v-64h384v-64h64v-64h64v64h-64v64h64v-64h64v64h320v64h64zM256 320v64h-64v-64h64zM768 320h128v64h-128v-64zM128 384h-64v-64h64v64zM128 384h64v64h-64v-64z" />
    <glyph glyph-name="uniFD73" unicode="&#xfd73;" arabic-form="initial" 
d="M960 256v64h-64v-64h-128v64h-64v256h-64v-320h-640v-64h128v-64h64v-64h64v64h-64v64h64v-64h64v64h64v-64h64v-64h64v64h-64v64h64v-64h64v64h320v64h64zM768 320h128v64h-128v-64z" />
    <glyph glyph-name="uniFD74" unicode="&#xfd74;" arabic-form="final" 
d="M128 -128v64h-64v-64h64zM256 -128v64h-64v-64h64zM320 64v64h-64v-64h-192v-64h192v64h64zM1024 192v64h-64v64h-64v-64h-128v64h-64v256h-64v-320h-320v-64h64v-64h64v-64h64v64h-64v64h64v-64h64v64h448zM64 64v320h-64v-320h64zM256 128v64h-64v-64h64zM192 192v128
h-64v-128h64zM320 256v64h-64v-64h64zM192 320h64v64h-64v-64zM768 320h128v64h-128v-64z" />
    <glyph glyph-name="uniFD75" unicode="&#xfd75;" arabic-form="final" 
d="M512 64v64h-64v-64h64zM1024 192v64h-128v-64h128zM64 256v-320h64v256h640v64h-128v64h-64v-64h-256v64h-64v-64h-192zM768 256h128v64h-128v-64zM256 320v64h-64v-64h64zM576 320v64h-64v-64h64zM768 320v64h128v-64h64v128h-256v-128h64zM128 384h-64v-64h64v64z
M128 384h64v64h-64v-64zM448 384h-64v-64h64v64zM448 384h64v64h-64v-64z" />
    <glyph glyph-name="uniFD76" unicode="&#xfd76;" arabic-form="final" 
d="M1024 192v64h-128v-64h128zM128 256v-320h64v256h256v-64h64v-64h64v64h-64v64h64v-64h64v64h128v64h-384v64h-64v-64h-192zM768 256h128v64h-128v-64zM320 320v64h-64v-64h64zM768 320v64h128v-64h64v128h-256v-128h64zM192 384h-64v-64h64v64zM192 384h64v64h-64v-64z
" />
    <glyph glyph-name="uniFD77" unicode="&#xfd77;" arabic-form="initial" 
d="M960 192v64h-192v64h-64v-64h-704v-64h64v-64h64v-64h64v64h-64v64h64v-64h64v64h128v-64h64v-64h64v64h-64v64h64v-64h64v64h384zM896 320v64h-128v-64h128z" />
    <glyph glyph-name="uniFD78" unicode="&#xfd78;" arabic-form="final" 
d="M320 64v64h-64v-64h-192v-64h192v64h64zM1024 192v64h-128v-64h128zM64 64v320h-64v-320h64zM256 128v64h-64v-64h64zM512 128v-64h64v64h-64zM512 128v64h64v-64h64v64h128v64h-448v-64h128v-64h64zM192 192v128h-64v-128h64zM320 256v64h-64v-64h64zM768 256h128v64
h-128v-64zM192 320h64v64h-64v-64zM768 320v64h128v-64h64v128h-256v-128h64z" />
    <glyph glyph-name="uniFD79" unicode="&#xfd79;" arabic-form="final" 
d="M1024 192v64h-128v-64h128zM832 512v64h-64v-64h64zM128 256v-320h64v256h256v-64h64v-64h64v64h-64v64h64v-64h64v64h128v64h-384v64h-64v-64h-192zM768 256h128v64h-128v-64zM320 320v64h-64v-64h64zM768 320v64h128v-64h64v128h-256v-128h64zM192 384h-64v-64h64v64z
M192 384h64v64h-64v-64z" />
    <glyph glyph-name="uniFD7A" unicode="&#xfd7a;" arabic-form="final" 
d="M128 -128v64h-64v-64h64zM256 -128v64h-64v-64h64zM320 64v64h-64v-64h-192v-64h192v64h64zM1024 192v64h-128v-64h128zM832 512v64h-64v-64h64zM64 64v320h-64v-320h64zM256 128v64h-64v-64h64zM512 128v-64h64v64h-64zM512 128v64h64v-64h64v64h128v64h-448v-64h128
v-64h64zM192 192v128h-64v-128h64zM320 256v64h-64v-64h64zM768 256h128v64h-128v-64zM192 320h64v64h-64v-64zM768 320v64h128v-64h64v128h-256v-128h64z" />
    <glyph glyph-name="uniFD7B" unicode="&#xfd7b;" arabic-form="final" 
d="M320 64v64h-64v-64h-192v-64h192v64h64zM1024 192v64h-128v-64h128zM832 512v64h-64v-64h64zM64 64v320h-64v-320h64zM256 128v64h-64v-64h64zM512 128v-64h64v64h-64zM512 128v64h64v-64h64v64h128v64h-448v-64h128v-64h64zM192 192v128h-64v-128h64zM320 256v64h-64
v-64h64zM768 256h128v64h-128v-64zM192 320h64v64h-64v-64zM768 320v64h128v-64h64v128h-256v-128h64z" />
    <glyph glyph-name="uniFD7C" unicode="&#xfd7c;" arabic-form="final" 
d="M1024 192v64h-128v128h-64v-128h-64v-64h256zM512 512v64h-64v-64h64zM832 512v64h-64v-64h64zM64 256v-320h64v256h576v64h-64v64h-64v-64h-256v64h-64v-64h-192zM704 256h64v128h-64v-128zM256 320v64h-64v-64h64zM576 320v64h-64v-64h64zM128 384h-64v-64h64v64z
M128 384h64v64h-64v-64zM448 384h-64v-64h64v64zM448 384h64v64h-64v-64zM768 384h64v64h-64v-64z" />
    <glyph glyph-name="uniFD7D" unicode="&#xfd7d;" arabic-form="initial" 
d="M512 512v64h-64v-64h64zM832 576v64h-64v-64h64zM192 128v-64h64v64h-64zM192 128v64h64v-64h64v64h576v256h-64v-64h-64v-64h64v-64h-192v64h-64v-64h-576v-64h128v-64h64zM576 320v64h-64v-64h64zM448 384h-64v-64h64v64zM448 384h64v64h-64v-64zM768 384v64h-64v-64
h64zM768 448h64v64h-64v-64z" />
    <glyph glyph-name="uniFD7E" unicode="&#xfd7e;" arabic-form="final" 
d="M384 -64v64h-64v-64h-128v-64h128v64h64zM1024 192v64h-64v128h-64v-128h-64v-64h192zM832 512v64h-64v-64h64zM960 512v64h-64v-64h64zM192 -64v64h-64v-64h64zM128 0v128h-64v-128h64zM128 128h64v64h-64v-64zM512 128v-64h64v64h-64zM512 128v64h64v-64h64v64h128v64
h-448v-64h128v-64h64zM192 192h64v64h-64v-64zM256 256h64v64h-64v-64zM768 256h64v128h-64v-128zM256 320v64h-64v-64h64zM128 384h-64v-64h64v64zM128 384h64v64h-64v-64zM832 384h64v64h-64v-64z" />
    <glyph glyph-name="uniFD7F" unicode="&#xfd7f;" arabic-form="final" 
d="M1024 192v64h-128v128h-64v-128h-64v-64h256zM768 512v64h-64v-64h64zM896 512v64h-64v-64h64zM64 256v-320h64v256h256v-64h64v-64h64v64h-64v64h64v-64h64v64h128v64h-384v64h-64v-64h-192zM704 256h64v128h-64v-128zM256 320v64h-64v-64h64zM128 384h-64v-64h64v64z
M128 384h64v64h-64v-64zM768 384h64v64h-64v-64z" />
    <glyph glyph-name="uniFD80" unicode="&#xfd80;" arabic-form="final" 
d="M1024 192v64h-64v-64h64zM192 256v-320h64v256h640v64h-128v64h-64v-64h-256v64h-64v-64h-192zM896 256h64v320h-64v-320zM384 320v64h-64v-64h64zM704 320v64h-64v-64h64zM256 384h-64v-64h64v64zM256 384h64v64h-64v-64zM576 384h-64v-64h64v64zM576 384h64v64h-64v-64
z" />
    <glyph glyph-name="uniFD81" unicode="&#xfd81;" arabic-form="final" 
d="M256 -128v64h-64v-64h64zM384 -128v64h-64v-64h64zM448 64v64h-64v-64h-192v-64h192v64h64zM1024 192v64h-64v-64h64zM192 64v320h-64v-320h64zM384 128v64h-64v-64h64zM320 192v128h-64v-128h64zM448 256v-64h448v64h-128v64h-64v-64h-256zM448 256v64h-64v-64h64z
M896 256h64v320h-64v-320zM320 320h64v64h-64v-64zM704 320v64h-64v-64h64zM576 384h-64v-64h64v64zM576 384h64v64h-64v-64z" />
    <glyph glyph-name="uniFD82" unicode="&#xfd82;" arabic-form="final" 
d="M448 64v64h-64v-64h-192v-64h192v64h64zM1024 192v64h-64v-64h64zM192 64v320h-64v-320h64zM384 128v64h-64v-64h64zM320 192v128h-64v-128h64zM448 256v-64h448v64h-128v64h-64v-64h-256zM448 256v64h-64v-64h64zM896 256h64v320h-64v-320zM320 320h64v64h-64v-64z
M704 320v64h-64v-64h64zM576 384h-64v-64h64v64zM576 384h64v64h-64v-64z" />
    <glyph glyph-name="uniFD83" unicode="&#xfd83;" arabic-form="initial" 
d="M192 64v64h-64v-64h64zM512 64v64h-64v-64h64zM256 256h-256v-64h768v64h-128v64h-64v-64h-256v64h-64v-64zM768 256h64v320h-64v-320zM256 320v64h-64v-64h64zM576 320v64h-64v-64h64zM128 384h-64v-64h64v64zM128 384h64v64h-64v-64zM448 384h-64v-64h64v64zM448 384
h64v64h-64v-64z" />
    <glyph glyph-name="uniFD84" unicode="&#xfd84;" arabic-form="final" 
d="M384 -64v64h-64v-64h-128v-64h128v64h64zM320 64v64h-64v-64h64zM576 64v64h-64v-64h64zM1024 192v64h-64v-64h64zM192 -64v64h-64v-64h64zM128 0v128h-64v-128h64zM128 128h64v64h-64v-64zM192 192h64v64h-64v-64zM256 256h64v-64h576v64h-192v64h-64v-64h-320v64h-64
v-64zM896 256h64v320h-64v-320zM256 320v64h-64v-64h64zM640 320v64h-64v-64h64zM128 384h-64v-64h64v64zM128 384h64v64h-64v-64zM512 384h-64v-64h64v64zM512 384h64v64h-64v-64z" />
    <glyph glyph-name="uniFD85" unicode="&#xfd85;" arabic-form="final" 
d="M1024 192v64h-64v-64h64zM576 512v64h-64v-64h64zM64 256v-320h64v256h768v64h-192v64h-64v-64h-320v64h-64v-64h-192zM896 256h64v320h-64v-320zM256 320v64h-64v-64h64zM640 320v64h-64v-64h64zM128 384h-64v-64h64v64zM128 384h64v64h-64v-64zM512 384h-64v-64h64v64z
M512 384h64v64h-64v-64z" />
    <glyph glyph-name="uniFD86" unicode="&#xfd86;" arabic-form="initial" 
d="M512 512v64h-64v-64h64zM192 128v-64h64v64h-64zM192 128v64h64v-64h64v64h512v64h-192v64h-64v-64h-576v-64h128v-64h64zM832 256h64v320h-64v-320zM576 320v64h-64v-64h64zM448 384h-64v-64h64v64zM448 384h64v64h-64v-64z" />
    <glyph glyph-name="uniFD87" unicode="&#xfd87;" arabic-form="final" 
d="M448 -64v64h-64v-64h-128v-64h128v64h64zM1024 192v64h-64v-64h64zM256 -64v64h-64v-64h64zM192 0v128h-64v-128h64zM192 128h64v64h-64v-64zM576 128v-64h64v64h-64zM576 128v64h64v-64h64v64h192v64h-512v-64h128v-64h64zM256 192h64v64h-64v-64zM320 256h64v64h-64
v-64zM896 256h64v320h-64v-320zM320 320v64h-64v-64h64zM192 384h-64v-64h64v64zM192 384h64v64h-64v-64z" />
    <glyph glyph-name="uniFD88" unicode="&#xfd88;" arabic-form="initial" 
d="M448 128v-64h64v64h-64zM448 128v64h64v-64h64v64h192v64h-448v64h-64v-64h-256v-64h384v-64h64zM768 256h64v320h-64v-320zM256 320v64h-64v-64h64zM128 384h-64v-64h64v64zM128 384h64v64h-64v-64z" />
    <glyph glyph-name="uniFD89" unicode="&#xfd89;" arabic-form="initial" 
d="M192 64v64h-64v-64h64zM768 128v-64h64v64h-64zM768 128v128h-128v64h-64v-64h-256v64h-64v-64h-256v-64h704v-64h64zM832 128h64v128h-64v-128zM768 256h64v64h-64v-64zM256 320v64h-64v-64h64zM576 320v64h-64v-64h64zM128 384h-64v-64h64v64zM128 384h64v64h-64v-64z
M448 384h-64v-64h64v64zM448 384h64v64h-64v-64z" />
    <glyph glyph-name="uniFD8A" unicode="&#xfd8a;" arabic-form="initial" 
d="M128 128v-64h64v64h-64zM128 128v64h64v-64h64v64h448v-64h64v-64h64v64h-64v128h-192v64h-64v-64h-512v-64h64v-64h64zM832 128h64v128h-64v-128zM768 256h64v64h-64v-64zM512 320v64h-64v-64h64zM384 384h-64v-64h64v64zM384 384h64v64h-64v-64z" />
    <glyph glyph-name="uniFD8B" unicode="&#xfd8b;" arabic-form="final" 
d="M128 -128v64h-64v-64h64zM256 -128v64h-64v-64h64zM320 64v64h-64v-64h-192v-64h192v64h64zM1024 192v64h-384v64h-64v-64h-256v-64h384v-64h64v-64h64v64h-64v64h64v-64h64v64h128zM64 64v320h-64v-320h64zM256 128v64h-64v-64h64zM192 192v128h-64v-128h64zM320 256v64
h-64v-64h64zM192 320h64v64h-64v-64zM576 320v64h-64v-64h64zM448 384h-64v-64h64v64zM448 384h64v64h-64v-64z" />
    <glyph glyph-name="uniFD8C" unicode="&#xfd8c;" arabic-form="initial" 
d="M512 64v64h-64v-64h64zM768 128v-64h64v64h-64zM768 128v128h-128v64h-64v-64h-256v64h-64v-64h-256v-64h704v-64h64zM832 128h64v128h-64v-128zM768 256h64v64h-64v-64zM256 320v64h-64v-64h64zM576 320v64h-64v-64h64zM128 384h-64v-64h64v64zM128 384h64v64h-64v-64z
M448 384h-64v-64h64v64zM448 384h64v64h-64v-64z" />
    <glyph glyph-name="uniFD8D" unicode="&#xfd8d;" arabic-form="initial" 
d="M512 64v64h-64v-64h64zM192 128v-64h64v64h-64zM192 128v64h64v-64h64v64h384v-64h64v-64h64v64h-64v128h-128v64h-64v-64h-576v-64h128v-64h64zM832 128h64v128h-64v-128zM768 256h64v64h-64v-64zM576 320v64h-64v-64h64zM448 384h-64v-64h64v64zM448 384h64v64h-64v-64
z" />
    <glyph glyph-name="uniFD8E" unicode="&#xfd8e;" arabic-form="initial" 
d="M192 64v64h-64v-64h64zM512 512v64h-64v-64h64zM768 128v-64h64v64h-64zM768 128v128h-128v64h-64v-64h-256v64h-64v-64h-256v-64h704v-64h64zM832 128h64v128h-64v-128zM768 256h64v64h-64v-64zM256 320v64h-64v-64h64zM576 320v64h-64v-64h64zM128 384h-64v-64h64v64z
M128 384h64v64h-64v-64zM448 384h-64v-64h64v64zM448 384h64v64h-64v-64z" />
    <glyph glyph-name="uniFD8F" unicode="&#xfd8f;" arabic-form="initial" 
d="M512 512v64h-64v-64h64zM192 128v-64h64v64h-64zM192 128v64h64v-64h64v64h384v-64h64v-64h64v64h-64v128h-128v64h-64v-64h-576v-64h128v-64h64zM832 128h64v128h-64v-128zM768 256h64v64h-64v-64zM576 320v64h-64v-64h64zM448 384h-64v-64h64v64zM448 384h64v64h-64
v-64z" />
    <glyph glyph-name="uniFD92" unicode="&#xfd92;" arabic-form="initial" 
d="M512 64v64h-64v-64h64zM192 512v64h-64v-64h64zM768 128v-64h64v64h-64zM768 128v128h-128v64h-64v-64h-256v64h-64v-64h-256v-64h704v-64h64zM832 128h64v128h-64v-128zM768 256h64v64h-64v-64zM256 320v64h-64v-64h64zM576 320v64h-64v-64h64zM128 384h-64v-64h64v64z
M128 384h64v64h-64v-64zM448 384h-64v-64h64v64zM448 384h64v64h-64v-64z" />
    <glyph glyph-name="uniFD93" unicode="&#xfd93;" arabic-form="initial" 
d="M192 64v64h-64v-64h64zM448 128v-64h64v64h-64zM448 128v64h64v-64h64v64h64v64h-320v64h-64v-64h-256v-64h384v-64h64zM640 256h64v-64h192v64h-64v128h-64v-128h-64v128h-64v-128zM896 256h64v192h-64v-192zM256 320v64h-64v-64h64zM128 384h-64v-64h64v64zM128 384h64
v64h-64v-64zM704 384h64v64h-64v-64zM896 448v64h-64v-64h64zM832 512v64h-128v-64h128z" />
    <glyph glyph-name="uniFD94" unicode="&#xfd94;" arabic-form="initial" 
d="M192 128v-64h64v64h-64zM192 128v64h64v-64h64v64h64v-64h64v-64h64v64h-64v64h64v-64h64v64h64v64h-640v-64h128v-64h64zM640 256h64v-64h192v64h-64v128h-64v-128h-64v128h-64v-128zM896 256h64v192h-64v-192zM704 384h64v64h-64v-64zM896 448v64h-64v-64h64zM832 512
v64h-128v-64h128z" />
    <glyph glyph-name="uniFD95" unicode="&#xfd95;" arabic-form="initial" 
d="M832 448v64h-64v-64h64zM192 128v-64h64v64h-64zM192 128v64h64v-64h64v64h448v64h-128v64h-64v-64h-576v-64h128v-64h64zM768 256h64v128h-64v-128zM576 320v64h-64v-64h64zM448 384h-64v-64h64v64zM448 384h64v64h-64v-64z" />
    <glyph glyph-name="uniFD96" unicode="&#xfd96;" arabic-form="final" 
d="M384 64v64h-64v-64h-192v-64h192v64h64zM1024 192v64h-128v-64h128zM896 448v64h-64v-64h64zM128 64v320h-64v-320h64zM320 128v64h-64v-64h64zM256 192v128h-64v-128h64zM384 256v-64h448v64h-128v64h-64v-64h-256zM384 256v64h-64v-64h64zM832 256h64v128h-64v-128z
M256 320h64v64h-64v-64zM640 320v64h-64v-64h64zM512 384h-64v-64h64v64zM512 384h64v64h-64v-64z" />
    <glyph glyph-name="uniFD97" unicode="&#xfd97;" arabic-form="final" 
d="M576 64v64h-64v-64h64zM1024 192v64h-128v-64h128zM896 448v64h-64v-64h64zM64 256v-320h64v256h704v64h-128v64h-64v-64h-320v64h-64v-64h-192zM832 256h64v128h-64v-128zM256 320v64h-64v-64h64zM640 320v64h-64v-64h64zM128 384h-64v-64h64v64zM128 384h64v64h-64v-64
zM512 384h-64v-64h64v64zM512 384h64v64h-64v-64z" />
    <glyph glyph-name="uniFD98" unicode="&#xfd98;" arabic-form="initial" 
d="M512 64v64h-64v-64h64zM832 448v64h-64v-64h64zM192 128v-64h64v64h-64zM192 128v64h64v-64h64v64h448v64h-128v64h-64v-64h-576v-64h128v-64h64zM768 256h64v128h-64v-128zM576 320v64h-64v-64h64zM448 384h-64v-64h64v64zM448 384h64v64h-64v-64z" />
    <glyph glyph-name="uniFD99" unicode="&#xfd99;" arabic-form="final" 
d="M320 64v64h-64v-64h-192v-64h192v64h64zM576 64v64h-64v-64h64zM1024 192v64h-128v-64h128zM896 448v64h-64v-64h64zM64 64v320h-64v-320h64zM256 128v64h-64v-64h64zM192 192v128h-64v-128h64zM320 256v-64h512v64h-128v64h-64v-64h-320zM320 256v64h-64v-64h64z
M832 256h64v128h-64v-128zM192 320h64v64h-64v-64zM640 320v64h-64v-64h64zM512 384h-64v-64h64v64zM512 384h64v64h-64v-64z" />
    <glyph glyph-name="uniFD9A" unicode="&#xfd9a;" arabic-form="final" 
d="M192 -128v64h-64v-64h64zM320 -128v64h-64v-64h64zM384 64v64h-64v-64h-192v-64h192v64h64zM1024 192v64h-128v-64h128zM896 448v64h-64v-64h64zM128 64v320h-64v-320h64zM320 128v64h-64v-64h64zM576 128v-64h64v64h-64zM576 128v64h64v-64h64v64h128v64h-448v-64h128
v-64h64zM256 192v128h-64v-128h64zM384 256v64h-64v-64h64zM832 256h64v128h-64v-128zM256 320h64v64h-64v-64z" />
    <glyph glyph-name="uniFD9B" unicode="&#xfd9b;" arabic-form="final" 
d="M384 64v64h-64v-64h-192v-64h192v64h64zM1024 192v64h-128v-64h128zM896 448v64h-64v-64h64zM128 64v320h-64v-320h64zM320 128v64h-64v-64h64zM576 128v-64h64v64h-64zM576 128v64h64v-64h64v64h128v64h-448v-64h128v-64h64zM256 192v128h-64v-128h64zM384 256v64h-64
v-64h64zM832 256h64v128h-64v-128zM256 320h64v64h-64v-64z" />
    <glyph glyph-name="uniFD9C" unicode="&#xfd9c;" arabic-form="final" 
d="M832 64v64h-64v-64h64zM960 64v64h-64v-64h64zM1024 192v64h-128v-64h128zM192 256v-320h64v256h256v-64h64v-64h64v64h-64v64h64v-64h64v64h128v64h-384v64h-64v-64h-192zM832 256h64v128h-64v-128zM384 320v64h-64v-64h64zM256 384h-64v-64h64v64zM256 384h64v64h-64
v-64z" />
    <glyph glyph-name="uniFD9D" unicode="&#xfd9d;" arabic-form="initial" 
d="M768 64v64h-64v-64h64zM896 64v64h-64v-64h64zM192 128v-64h64v64h-64zM192 128v64h64v-64h64v64h128v-64h64v-64h64v64h-64v64h64v-64h64v64h256v64h-896v-64h128v-64h64zM896 256h64v128h-64v-128z" />
    <glyph glyph-name="uniFD9E" unicode="&#xfd9e;" arabic-form="final" 
d="M128 -128v64h-64v-64h64zM256 -128v64h-64v-64h64zM320 64v64h-64v-64h-192v-64h192v64h64zM896 64v64h-64v-64h64zM1024 192v64h-64v-64h64zM576 512v64h-64v-64h64zM64 64v320h-64v-320h64zM256 128v64h-64v-64h64zM192 192v128h-64v-128h64zM320 256v-64h576v64h-192
v64h-64v-64h-320zM320 256v64h-64v-64h64zM896 256h64v128h-64v-128zM192 320h64v64h-64v-64zM640 320v64h-64v-64h64zM512 384h-64v-64h64v64zM512 384h64v64h-64v-64z" />
    <glyph glyph-name="uniFD9F" unicode="&#xfd9f;" arabic-form="final" 
d="M128 -128v64h-64v-64h64zM256 -128v64h-64v-64h64zM320 64v64h-64v-64h-192v-64h192v64h64zM640 64v64h-64v-64h64zM1024 192v64h-64v-64h64zM832 448v64h-64v-64h64zM960 448v64h-64v-64h64zM64 64v320h-64v-320h64zM256 128v64h-64v-64h64zM192 192v128h-64v-128h64z
M320 256v-64h576v64h-192v64h-64v-64h-320zM320 256v64h-64v-64h64zM896 256h64v128h-64v-128zM192 320h64v64h-64v-64zM640 320v64h-64v-64h64zM512 384h-64v-64h64v64zM512 384h64v64h-64v-64z" />
    <glyph glyph-name="uniFDA0" unicode="&#xfda0;" arabic-form="final" 
d="M320 64v64h-64v-64h-192v-64h192v64h64zM576 64v64h-64v-64h64zM1024 192v64h-64v-64h64zM832 448v64h-64v-64h64zM960 448v64h-64v-64h64zM64 64v320h-64v-320h64zM256 128v64h-64v-64h64zM192 192v128h-64v-128h64zM320 256v-64h576v64h-192v64h-64v-64h-320zM320 256
v64h-64v-64h64zM896 256h64v128h-64v-128zM192 320h64v64h-64v-64zM640 320v64h-64v-64h64zM512 384h-64v-64h64v64zM512 384h64v64h-64v-64z" />
    <glyph glyph-name="uniFDA1" unicode="&#xfda1;" arabic-form="final" 
d="M128 -128v64h-64v-64h64zM256 -128v64h-64v-64h64zM320 64v64h-64v-64h-192v-64h192v64h64zM1024 192v64h-64v-64h64zM832 448v64h-64v-64h64zM960 448v64h-64v-64h64zM576 512v64h-64v-64h64zM64 64v320h-64v-320h64zM256 128v64h-64v-64h64zM192 192v128h-64v-128h64z
M320 256v-64h576v64h-192v64h-64v-64h-320zM320 256v64h-64v-64h64zM896 256h64v128h-64v-128zM192 320h64v64h-64v-64zM640 320v64h-64v-64h64zM512 384h-64v-64h64v64zM512 384h64v64h-64v-64z" />
    <glyph glyph-name="uniFDA2" unicode="&#xfda2;" arabic-form="final" 
d="M320 64v64h-64v-64h-192v-64h192v64h64zM1024 192v64h-64v-64h64zM832 448v64h-64v-64h64zM960 448v64h-64v-64h64zM576 512v64h-64v-64h64zM64 64v320h-64v-320h64zM256 128v64h-64v-64h64zM192 192v128h-64v-128h64zM320 256v-64h576v64h-192v64h-64v-64h-320zM320 256
v64h-64v-64h64zM896 256h64v128h-64v-128zM192 320h64v64h-64v-64zM640 320v64h-64v-64h64zM512 384h-64v-64h64v64zM512 384h64v64h-64v-64z" />
    <glyph glyph-name="uniFDA3" unicode="&#xfda3;" arabic-form="final" 
d="M192 -128v64h-64v-64h64zM320 -128v64h-64v-64h64zM384 64v64h-64v-64h-192v-64h192v64h64zM1024 192v64h-64v-64h64zM832 448v64h-64v-64h64zM960 448v64h-64v-64h64zM128 64v320h-64v-320h64zM320 128v64h-64v-64h64zM576 128v-64h64v64h-64zM576 128v64h64v-64h64v64
h192v64h-512v-64h128v-64h64zM256 192v128h-64v-128h64zM384 256v64h-64v-64h64zM896 256h64v128h-64v-128zM256 320h64v64h-64v-64z" />
    <glyph glyph-name="uniFDA4" unicode="&#xfda4;" arabic-form="final" 
d="M384 64v64h-64v-64h-192v-64h192v64h64zM1024 192v64h-64v-64h64zM832 448v64h-64v-64h64zM960 448v64h-64v-64h64zM128 64v320h-64v-320h64zM320 128v64h-64v-64h64zM576 128v-64h64v64h-64zM576 128v64h64v-64h64v64h192v64h-512v-64h128v-64h64zM256 192v128h-64v-128
h64zM384 256v64h-64v-64h64zM896 256h64v128h-64v-128zM256 320h64v64h-64v-64z" />
    <glyph glyph-name="uniFDA5" unicode="&#xfda5;" arabic-form="final" 
d="M128 -128v64h-64v-64h64zM256 -128v64h-64v-64h64zM320 64v64h-64v-64h-192v-64h192v64h64zM832 64v64h-64v-64h64zM1024 192v64h-64v64h-64v-64h-576v-64h128v-64h64v-64h64v64h-64v64h64v-64h64v64h384zM64 64v320h-64v-320h64zM256 128v64h-64v-64h64zM192 192v128
h-64v-128h64zM320 256v64h-64v-64h64zM192 320h64v64h-64v-64zM896 320v64h-64v-64h64zM768 384h-64v-64h64v64zM768 384h64v64h-64v-64z" />
    <glyph glyph-name="uniFDA6" unicode="&#xfda6;" arabic-form="final" 
d="M320 64v64h-64v-64h-192v-64h192v64h64zM832 64v64h-64v-64h64zM1024 192v64h-64v64h-64v-64h-256v64h-64v-64h-256v-64h704zM64 64v320h-64v-320h64zM256 128v64h-64v-64h64zM192 192v128h-64v-128h64zM320 256v64h-64v-64h64zM192 320h64v64h-64v-64zM576 320v64h-64
v-64h64zM896 320v64h-64v-64h64zM448 384h-64v-64h64v64zM448 384h64v64h-64v-64zM768 384h-64v-64h64v64zM768 384h64v64h-64v-64z" />
    <glyph glyph-name="uniFDA7" unicode="&#xfda7;" arabic-form="final" 
d="M320 64v64h-64v-64h-192v-64h192v64h64zM832 64v64h-64v-64h64zM1024 192v64h-64v64h-64v-64h-576v-64h128v-64h64v-64h64v64h-64v64h64v-64h64v64h384zM64 64v320h-64v-320h64zM256 128v64h-64v-64h64zM192 192v128h-64v-128h64zM320 256v64h-64v-64h64zM192 320h64v64
h-64v-64zM896 320v64h-64v-64h64zM768 384h-64v-64h64v64zM768 384h64v64h-64v-64z" />
    <glyph glyph-name="uniFDA8" unicode="&#xfda8;" arabic-form="final" 
d="M320 64v64h-64v-64h-192v-64h192v64h64zM512 512v64h-64v-64h64zM64 64v320h-64v-320h64zM256 128v64h-64v-64h64zM192 192v128h-64v-128h64zM320 256v-64h704v192h-64v-128h-64v128h-64v-128h-64v128h-64v-128h-64v64h-64v-64h-256zM320 256v64h-64v-64h64zM192 320h64
v64h-64v-64zM576 320v64h-64v-64h64zM448 384h-64v-64h64v64zM448 384h64v64h-64v-64z" />
    <glyph glyph-name="uniFDA9" unicode="&#xfda9;" arabic-form="final" 
d="M128 -128v64h-64v-64h64zM256 -128v64h-64v-64h64zM320 64v64h-64v-64h-192v-64h192v64h64zM64 64v320h-64v-320h64zM256 128v64h-64v-64h64zM192 192v128h-64v-128h64zM320 256v-64h384v64h-64v64h-64v-64h-256zM320 256v64h-64v-64h64zM704 256h64v-64h256v192h-64
v-128h-64v128h-64v-128h-64v128h-64v-128zM192 320h64v64h-64v-64zM576 320v64h-64v-64h64zM448 384h-64v-64h64v64zM448 384h64v64h-64v-64zM896 384h64v64h-64v-64z" />
    <glyph glyph-name="uniFDAA" unicode="&#xfdaa;" arabic-form="final" 
d="M128 -128v64h-64v-64h64zM256 -128v64h-64v-64h64zM320 64v64h-64v-64h-192v-64h192v64h64zM832 448v64h-64v-64h64zM960 448v64h-64v-64h64zM896 576v64h-64v-64h64zM64 64v320h-64v-320h64zM256 128v64h-64v-64h64zM192 192v128h-64v-128h64zM320 256v-64h704v192h-64
v-128h-64v128h-64v-128h-64v128h-64v-128h-64v64h-64v-64h-256zM320 256v64h-64v-64h64zM192 320h64v64h-64v-64zM576 320v64h-64v-64h64zM448 384h-64v-64h64v64zM448 384h64v64h-64v-64z" />
    <glyph glyph-name="uniFDAB" unicode="&#xfdab;" arabic-form="final" 
d="M128 -128v64h-64v-64h64zM256 -128v64h-64v-64h64zM320 64v64h-64v-64h-192v-64h192v64h64zM960 512v64h-64v-64h64zM64 64v320h-64v-320h64zM256 128v64h-64v-64h64zM192 192v128h-64v-128h64zM320 256v-64h704v192h-64v-128h-64v128h-64v-128h-64v128h-64v-128h-64v64
h-64v-64h-256zM320 256v64h-64v-64h64zM192 320h64v64h-64v-64zM576 320v64h-64v-64h64zM448 384h-64v-64h64v64zM448 384h64v64h-64v-64zM896 384h64v64h-64v-64z" />
    <glyph glyph-name="uniFDAC" unicode="&#xfdac;" arabic-form="final" 
d="M192 -128v64h-64v-64h64zM320 -128v64h-64v-64h64zM384 64v64h-64v-64h-192v-64h192v64h64zM576 64v64h-64v-64h64zM1024 192v64h-128v-64h128zM128 64v320h-64v-320h64zM320 128v64h-64v-64h64zM256 192v128h-64v-128h64zM384 256v-64h448v64h-128v64h-64v-64h-256z
M384 256v64h-64v-64h64zM832 256h64v320h-64v-320zM256 320h64v64h-64v-64zM640 320v64h-64v-64h64zM512 384h-64v-64h64v64zM512 384h64v64h-64v-64z" />
    <glyph glyph-name="uniFDAD" unicode="&#xfdad;" arabic-form="final" 
d="M192 -128v64h-64v-64h64zM320 -128v64h-64v-64h64zM384 64v64h-64v-64h-192v-64h192v64h64zM1024 192v64h-128v-64h128zM128 64v320h-64v-320h64zM320 128v64h-64v-64h64zM576 128v-64h64v64h-64zM576 128v64h64v-64h64v64h128v64h-448v-64h128v-64h64zM256 192v128h-64
v-128h64zM384 256v64h-64v-64h64zM832 256h64v320h-64v-320zM256 320h64v64h-64v-64z" />
    <glyph glyph-name="uniFDAE" unicode="&#xfdae;" arabic-form="final" 
d="M192 -128v64h-64v-64h64zM320 -128v64h-64v-64h64zM384 64v64h-64v-64h-192v-64h192v64h64zM832 64v64h-64v-64h64zM960 64v64h-64v-64h64zM1024 192v64h-128v-64h128zM128 64v320h-64v-320h64zM320 128v64h-64v-64h64zM256 192v128h-64v-128h64zM384 256v-64h448v64
h-128v64h-64v-64h-256zM384 256v64h-64v-64h64zM832 256h64v128h-64v-128zM256 320h64v64h-64v-64zM640 320v64h-64v-64h64zM512 384h-64v-64h64v64zM512 384h64v64h-64v-64z" />
    <glyph glyph-name="uniFDAF" unicode="&#xfdaf;" arabic-form="final" 
d="M192 -128v64h-64v-64h64zM320 -128v64h-64v-64h64zM384 64v64h-64v-64h-192v-64h192v64h64zM576 64v64h-64v-64h64zM832 64v64h-64v-64h64zM960 64v64h-64v-64h64zM1024 192v64h-128v-64h128zM128 64v320h-64v-320h64zM320 128v64h-64v-64h64zM256 192v128h-64v-128h64z
M384 256v-64h448v64h-128v64h-64v-64h-256zM384 256v64h-64v-64h64zM832 256h64v128h-64v-128zM256 320h64v64h-64v-64zM640 320v64h-64v-64h64zM512 384h-64v-64h64v64zM512 384h64v64h-64v-64z" />
    <glyph glyph-name="uniFDB0" unicode="&#xfdb0;" arabic-form="final" 
d="M192 -128v64h-64v-64h64zM320 -128v64h-64v-64h64zM384 64v64h-64v-64h-192v-64h192v64h64zM832 64v64h-64v-64h64zM960 64v64h-64v-64h64zM1024 192v64h-128v-64h128zM128 64v320h-64v-320h64zM320 128v64h-64v-64h64zM576 128v-64h64v64h-64zM576 128v64h64v-64h64v64
h128v64h-448v-64h128v-64h64zM256 192v128h-64v-128h64zM384 256v64h-64v-64h64zM832 256h64v128h-64v-128zM256 320h64v64h-64v-64z" />
    <glyph glyph-name="uniFDB1" unicode="&#xfdb1;" arabic-form="final" 
d="M192 -128v64h-64v-64h64zM320 -128v64h-64v-64h64zM384 64v64h-64v-64h-192v-64h192v64h64zM1024 192v64h-640v-64h128v-64h64v-64h64v64h-64v64h64v-64h64v64h64v-64h64v-64h64v64h-64v64h64v-64h64v64h64zM128 64v320h-64v-320h64zM320 128v64h-64v-64h64zM256 192v128
h-64v-128h64zM384 256v64h-64v-64h64zM256 320h64v64h-64v-64z" />
    <glyph glyph-name="uniFDB2" unicode="&#xfdb2;" arabic-form="final" 
d="M192 -128v64h-64v-64h64zM320 -128v64h-64v-64h64zM384 64v64h-64v-64h-192v-64h192v64h64zM1024 192v64h-64v128h-64v-128h-64v-64h192zM832 512v64h-64v-64h64zM960 512v64h-64v-64h64zM128 64v320h-64v-320h64zM320 128v64h-64v-64h64zM576 128v-64h64v64h-64z
M576 128v64h64v-64h64v64h64v64h-384v-64h128v-64h64zM256 192v128h-64v-128h64zM384 256v64h-64v-64h64zM768 256h64v128h-64v-128zM256 320h64v64h-64v-64zM832 384h64v64h-64v-64z" />
    <glyph glyph-name="uniFDB3" unicode="&#xfdb3;" arabic-form="final" 
d="M192 -128v64h-64v-64h64zM320 -128v64h-64v-64h64zM384 64v64h-64v-64h-192v-64h192v64h64zM1024 192v64h-128v-64h128zM896 448v64h-64v-64h64zM128 64v320h-64v-320h64zM320 128v64h-64v-64h64zM256 192v128h-64v-128h64zM384 256v-64h448v64h-128v64h-64v-64h-256z
M384 256v64h-64v-64h64zM832 256h64v128h-64v-128zM256 320h64v64h-64v-64zM640 320v64h-64v-64h64zM512 384h-64v-64h64v64zM512 384h64v64h-64v-64z" />
    <glyph glyph-name="uniFDB4" unicode="&#xfdb4;" arabic-form="initial" 
d="M768 576v64h-64v-64h64zM896 576v64h-64v-64h64zM448 128v-64h64v64h-64zM448 128v64h64v-64h64v64h320v256h-64v-64h-64v-64h64v-64h-512v64h-64v-64h-256v-64h384v-64h64zM256 320v64h-64v-64h64zM128 384h-64v-64h64v64zM128 384h64v64h-64v-64zM768 384v64h-64v-64
h64zM768 448h64v64h-64v-64z" />
    <glyph glyph-name="uniFDB5" unicode="&#xfdb5;" arabic-form="initial" 
d="M192 128v-64h64v64h-64zM192 128v64h64v-64h64v64h512v384h-64v-320h-128v64h-64v-64h-576v-64h128v-64h64zM576 320v64h-64v-64h64zM448 384h-64v-64h64v64zM448 384h64v64h-64v-64z" />
    <glyph glyph-name="uniFDB6" unicode="&#xfdb6;" arabic-form="final" 
d="M128 -128v64h-64v-64h64zM256 -128v64h-64v-64h64zM320 64v64h-64v-64h-192v-64h192v64h64zM1024 192v64h-128v-64h128zM64 64v320h-64v-320h64zM256 128v64h-64v-64h64zM512 128v-64h64v64h-64zM512 128v64h64v-64h64v64h128v64h-448v-64h128v-64h64zM192 192v128h-64
v-128h64zM320 256v64h-64v-64h64zM768 256h128v64h-128v-64zM192 320h64v64h-64v-64zM768 320v64h128v-64h64v128h-256v-128h64z" />
    <glyph glyph-name="uniFDB7" unicode="&#xfdb7;" arabic-form="final" 
d="M128 -128v64h-64v-64h64zM256 -128v64h-64v-64h64zM320 64v64h-64v-64h-192v-64h192v64h64zM1024 192v64h-64v-64h64zM960 512v64h-128v-64h-128v-64h-64v-64h64v-64h64v-64h-448v-64h64v-64h64v-64h64v64h-64v64h64v-64h64v64h192v64h192v64h-128v64h-128v64h128v64h128
zM64 64v320h-64v-320h64zM256 128v64h-64v-64h64zM192 192v128h-64v-128h64zM320 256v64h-64v-64h64zM192 320h64v64h-64v-64z" />
    <glyph glyph-name="uniFDB8" unicode="&#xfdb8;" arabic-form="initial" 
d="M512 64v64h-64v-64h64zM832 448v64h-64v-64h64zM256 256h-256v-64h832v192h-64v-128h-128v64h-64v-64h-256v64h-64v-64zM256 320v64h-64v-64h64zM576 320v64h-64v-64h64zM128 384h-64v-64h64v64zM128 384h64v64h-64v-64zM448 384h-64v-64h64v64zM448 384h64v64h-64v-64z
" />
    <glyph glyph-name="uniFDB9" unicode="&#xfdb9;" arabic-form="final" 
d="M128 -128v64h-64v-64h64zM256 -128v64h-64v-64h64zM320 64v64h-64v-64h-192v-64h192v64h64zM1024 192v64h-320v64h-64v-64h-320v-64h448v-64h64v-64h64v64h-64v64h64v-64h64v64h64zM576 512v64h-64v-64h64zM64 64v320h-64v-320h64zM256 128v64h-64v-64h64zM192 192v128
h-64v-128h64zM320 256v64h-64v-64h64zM192 320h64v64h-64v-64zM640 320v64h-64v-64h64zM512 384h-64v-64h64v64zM512 384h64v64h-64v-64z" />
    <glyph glyph-name="uniFDBA" unicode="&#xfdba;" arabic-form="initial" 
d="M512 64v64h-64v-64h64zM192 128v-64h64v64h-64zM192 128v64h64v-64h64v64h512v384h-64v-320h-128v64h-64v-64h-576v-64h128v-64h64zM576 320v64h-64v-64h64zM448 384h-64v-64h64v64zM448 384h64v64h-64v-64z" />
    <glyph glyph-name="uniFDBB" unicode="&#xfdbb;" arabic-form="final" 
d="M1024 192v64h-64v-64h64zM960 512v64h-128v-64h-128v-64h-64v-64h64v-64h64v-64h-448v64h-64v-64h-192v-320h64v256h256v-64h64v-64h64v64h-64v64h64v-64h64v64h192v64h192v64h-128v64h-128v64h128v64h128zM256 320v64h-64v-64h64zM128 384h-64v-64h64v64zM128 384h64v64
h-64v-64z" />
    <glyph glyph-name="uniFDBC" unicode="&#xfdbc;" arabic-form="final" 
d="M576 64v64h-64v-64h64zM1024 192v64h-128v-64h128zM64 256v-320h64v256h704v64h-128v64h-64v-64h-320v64h-64v-64h-192zM832 256h64v320h-64v-320zM256 320v64h-64v-64h64zM640 320v64h-64v-64h64zM128 384h-64v-64h64v64zM128 384h64v64h-64v-64zM512 384h-64v-64h64v64
zM512 384h64v64h-64v-64z" />
    <glyph glyph-name="uniFDBD" unicode="&#xfdbd;" arabic-form="final" 
d="M448 -64v64h-64v-64h-128v-64h128v64h64zM640 64v64h-64v-64h64zM1024 192v64h-64v-64h64zM960 448v64h-64v-64h64zM256 -64v64h-64v-64h64zM192 0v128h-64v-128h64zM192 128h64v64h-64v-64zM256 192h64v64h-64v-64zM320 256h64v-64h512v64h-128v64h-64v-64h-320v64h-64
v-64zM896 256h64v128h-64v-128zM320 320v64h-64v-64h64zM704 320v64h-64v-64h64zM192 384h-64v-64h64v64zM192 384h64v64h-64v-64zM576 384h-64v-64h64v64zM576 384h64v64h-64v-64z" />
    <glyph glyph-name="uniFDBE" unicode="&#xfdbe;" arabic-form="final" 
d="M128 -128v64h-64v-64h64zM256 -128v64h-64v-64h64zM320 64v64h-64v-64h-192v-64h192v64h64zM832 64v64h-64v-64h64zM1024 192v64h-64v64h-64v-64h-256v64h-64v-64h-256v-64h704zM64 64v320h-64v-320h64zM256 128v64h-64v-64h64zM192 192v128h-64v-128h64zM320 256v64h-64
v-64h64zM192 320h64v64h-64v-64zM576 320v64h-64v-64h64zM896 320v64h-64v-64h64zM448 384h-64v-64h64v64zM448 384h64v64h-64v-64zM768 384h-64v-64h64v64zM768 384h64v64h-64v-64z" />
    <glyph glyph-name="uniFDBF" unicode="&#xfdbf;" arabic-form="final" 
d="M128 -128v64h-64v-64h64zM256 -128v64h-64v-64h64zM320 64v64h-64v-64h-192v-64h192v64h64zM512 64v64h-64v-64h64zM1024 192v64h-64v64h-64v-64h-256v64h-64v-64h-256v-64h704zM64 64v320h-64v-320h64zM256 128v64h-64v-64h64zM192 192v128h-64v-128h64zM320 256v64h-64
v-64h64zM192 320h64v64h-64v-64zM576 320v64h-64v-64h64zM896 320v64h-64v-64h64zM448 384h-64v-64h64v64zM448 384h64v64h-64v-64zM768 384h-64v-64h64v64zM768 384h64v64h-64v-64z" />
    <glyph glyph-name="uniFDC0" unicode="&#xfdc0;" arabic-form="final" 
d="M128 -128v64h-64v-64h64zM256 -128v64h-64v-64h64zM320 64v64h-64v-64h-192v-64h192v64h64zM640 64v64h-64v-64h64zM1024 192v64h-320v64h-64v-64h-320v-64h448v-64h64v-64h64v64h-64v64h64v-64h64v64h64zM64 64v320h-64v-320h64zM256 128v64h-64v-64h64zM192 192v128
h-64v-128h64zM320 256v64h-64v-64h64zM192 320h64v64h-64v-64zM640 320v64h-64v-64h64zM512 384h-64v-64h64v64zM512 384h64v64h-64v-64z" />
    <glyph glyph-name="uniFDC1" unicode="&#xfdc1;" arabic-form="final" 
d="M192 -128v64h-64v-64h64zM320 -128v64h-64v-64h64zM384 64v64h-64v-64h-192v-64h192v64h64zM1024 192v64h-64v128h-64v-128h-64v-64h192zM896 512v64h-64v-64h64zM128 64v320h-64v-320h64zM320 128v64h-64v-64h64zM576 128v-64h64v64h-64zM576 128v64h64v-64h64v64h64v64
h-384v-64h128v-64h64zM256 192v128h-64v-128h64zM384 256v64h-64v-64h64zM768 256h64v128h-64v-128zM256 320h64v64h-64v-64zM832 384h64v64h-64v-64z" />
    <glyph glyph-name="uniFDC2" unicode="&#xfdc2;" arabic-form="final" 
d="M128 -128v64h-64v-64h64zM256 -128v64h-64v-64h64zM320 64v64h-64v-64h-192v-64h192v64h64zM896 64v64h-64v-64h64zM1024 192v64h-64v128h-64v-128h-192v64h-64v-64h-320v-64h704zM64 64v320h-64v-320h64zM256 128v64h-64v-64h64zM192 192v128h-64v-128h64zM320 256v64
h-64v-64h64zM192 320h64v64h-64v-64zM640 320v64h-64v-64h64zM512 384h-64v-64h64v64zM512 384h64v64h-64v-64z" />
    <glyph glyph-name="uniFDC3" unicode="&#xfdc3;" arabic-form="initial" 
d="M896 256v64h-64v-64h-832v-64h128v-64h64v-64h64v64h-64v64h64v-64h64v64h128v-64h64v-64h64v64h-64v64h64v-64h64v64h192v64h64zM1024 512v64h-128v-64h-128v-64h-64v-64h64v-64h64v64h-64v64h128v64h128z" />
    <glyph glyph-name="uniFDC4" unicode="&#xfdc4;" arabic-form="initial" 
d="M512 64v64h-64v-64h64zM1024 192v64h-192v64h-64v-64h-128v64h-64v-64h-576v-64h128v-64h64v-64h64v64h-64v64h64v-64h64v64h704zM960 320v64h-128v-64h128zM576 320v64h-64v-64h64zM448 384h-64v-64h64v64zM448 384h64v64h-64v-64z" />
    <glyph glyph-name="uniFDC5" unicode="&#xfdc5;" arabic-form="initial" 
d="M128 128v-64h64v64h-64zM128 128v64h64v-64h64v64h64v-64h64v-64h64v64h-64v64h64v-64h64v64h128v64h-640v-64h64v-64h64zM640 256h64v-64h192v64h-64v128h-64v-128h-64v128h-64v-128zM896 256h64v128h-64v-128zM832 384h64v64h-64v-64z" />
    <glyph glyph-name="uniFDC6" unicode="&#xfdc6;" arabic-form="final" 
d="M128 -128v64h-64v-64h64zM256 -128v64h-64v-64h64zM320 64v64h-64v-64h-192v-64h192v64h64zM512 512v64h-64v-64h64zM64 64v320h-64v-320h64zM256 128v64h-64v-64h64zM192 192v128h-64v-128h64zM320 256v-64h704v192h-64v-128h-64v128h-64v-128h-64v128h-64v-128h-64v64
h-64v-64h-256zM320 256v64h-64v-64h64zM192 320h64v64h-64v-64zM576 320v64h-64v-64h64zM448 384h-64v-64h64v64zM448 384h64v64h-64v-64z" />
    <glyph glyph-name="uniFDC7" unicode="&#xfdc7;" arabic-form="final" 
d="M128 -128v64h-64v-64h64zM256 -128v64h-64v-64h64zM320 64v64h-64v-64h-192v-64h192v64h64zM576 64v64h-64v-64h64zM1024 192v64h-128v-64h128zM896 448v64h-64v-64h64zM64 64v320h-64v-320h64zM256 128v64h-64v-64h64zM192 192v128h-64v-128h64zM320 256v-64h512v64
h-128v64h-64v-64h-320zM320 256v64h-64v-64h64zM832 256h64v128h-64v-128zM192 320h64v64h-64v-64zM640 320v64h-64v-64h64zM512 384h-64v-64h64v64zM512 384h64v64h-64v-64z" />
    <glyph glyph-name="uniFDF0" unicode="&#xfdf0;" arabic-form="isolated" 
d="M768 64v64h-640v-64h640zM128 128v128h-64v-128h64zM128 256h128v64h-128v-64zM256 320h64v64h-64v-64zM704 320h192v64h-192v64h-64v-64h-64v-64h64v-64h64v64zM320 384h64v-64h128v64h-128v384h-64v-384zM512 384h64v128h-64v-128zM896 384h64v128h-64v-128zM704 448
h64v64h-64v-64zM768 512h128v64h-128v-64z" />
    <glyph glyph-name="uniFDF1" unicode="&#xfdf1;" arabic-form="isolated" 
d="M832 64v64h-640v-64h640zM640 704v64h-64v-64h64zM768 704v64h-64v-64h64zM192 128v128h-64v-128h64zM192 256h128v64h-128v-64zM320 320h64v64h-64v-64zM384 384h64v-64h256v64h-256v384h-64v-384zM704 384h64v192h-64v-64h-64v-64h64v-64zM640 512v64h-64v-64h64z
M640 576h64v64h-64v-64z" />
    <glyph glyph-name="uniFDF2" unicode="&#xfdf2;" arabic-form="isolated" 
d="M256 192v-64h256v64h-192v256h-64v-64h-64v-64h-64v-64h64v-64h64zM512 192h64v-64h128v64h-128v320h-64v-320zM704 192h64v320h-64v-320zM192 256v64h64v-64h-64zM896 704v-512h64v512h-64zM320 640v-128h128v64h-64v64h-64zM448 576h128v64h-64v64h-64v-128zM576 640
h64v128h-64v-128zM448 704v192h-64v-192h64z" />
    <glyph glyph-name="uniFDF3" unicode="&#xfdf3;" arabic-form="isolated" 
d="M384 128v64h-64v-64h64zM896 768v64h-128v-64h-128v-64h-128v-64h-64v-128h64v-64h128v-64h64v-128h-256v-64h256v64h64v128h-64v64h-64v64h-128v128h128v64h128v64h128zM128 128h-64v-64h64v64zM128 128h64v64h-64v-64zM192 192h64v128h128v-64h64v192h-64v-64h-128v64
h-64v-256zM832 704v-512h64v512h-64z" />
    <glyph glyph-name="uniFDF4" unicode="&#xfdf4;" arabic-form="isolated" 
d="M704 -128v64h-128v-64h128zM896 128v64h-384v64h-64v-128h256v-64h-128v-64h-128v-64h128v64h128v64h128v64h64zM896 384v64h-64v-64h-64v64h-64v-64h-64v-64h-128v-64h128v64h192v64h64zM576 448v64h-128v-64h-128v-64h128v64h128zM896 640v64h-64v-64h64zM896 768v64
h-64v-64h-64v-64h-64v-64h-128v-64h128v64h64v64h64v64h64zM448 832v64h-128v-64h-128v-64h128v64h128zM448 0v64h-64v-64h64zM192 64v-64h128v64h-128zM192 64v64h-64v-64h64zM320 64h64v128h-64v-128zM320 192v128h-64v-128h64zM768 448h64v64h-64v-64zM256 640v-64h64v64
h-64zM256 640v64h-64v-64h64zM320 640h64v-64h64v64h-64v64h-64v-64zM448 640h64v128h-64v-128zM768 768v64h-64v-64h64zM768 832h64v64h-64v-64z" />
    <glyph glyph-name="uniFDF5" unicode="&#xfdf5;" arabic-form="isolated" 
d="M384 128v64h-64v-64h-64v-64h64v64h64zM128 128v-192h64v192h-64zM192 128h64v64h64v64h-192v-64h64v-64zM128 256v64h-64v-64h64zM128 320h64v64h64v-64h64v64h-64v128h-64v-64h-64v-128zM704 320h192v64h-192v64h-64v-64h-64v-64h64v-64h64v64zM320 384h64v-64h128v64
h-128v384h-64v-384zM512 384h64v128h-64v-128zM896 384h64v128h-64v-128zM128 448v64h-64v-64h64zM704 448h64v64h-64v-64zM128 512h64v64h-64v-64zM768 512h128v64h-128v-64z" />
    <glyph glyph-name="uniFDF6" unicode="&#xfdf6;" arabic-form="isolated" 
d="M448 256h-192v-64h192v64zM448 256h64v64h64v64h-64v64h-64v-64h-64v-64h64v-64zM896 256h-192v-64h192v64zM896 256h64v64h-64v-64zM960 320h64v128h-64v-128zM64 384v-64h128v64h-128zM64 384v128h-64v-128h64zM192 384h64v384h-64v-384zM384 384v64h-64v-64h64z
M576 384h64v-64h64v64h-64v128h-64v-128zM704 384h64v-64h64v64h-64v128h-64v-128zM832 384h64v128h-64v-128zM384 448h64v64h-64v-64z" />
    <glyph glyph-name="uniFDF7" unicode="&#xfdf7;" arabic-form="isolated" 
d="M384 192v64h-64v-64h64zM512 192v64h-64v-64h64zM960 320v64h-128v64h-64v-64h-64v-64h256zM960 448v64h-128v-64h128zM256 384v-64h128v64h-128zM256 384v256h-64v-64h-64v-64h-64v-64h64v-64h128zM384 384h128v-64h128v64h-128v64h-128v-64zM640 384h64v384h-64v-384z
M128 448v64h64v-64h-64z" />
    <glyph glyph-name="uniFDF8" unicode="&#xfdf8;" arabic-form="isolated" 
d="M320 128v64h-64v-64h-64v-64h64v64h64zM64 128v-192h64v192h-64zM128 128h64v64h64v64h-128v-128zM832 192h-128v-64h128v64zM832 192h64v64h-64v-64zM128 256v64h-64v-64h64zM896 256h64v192h-64v-64h-64v-64h64v-64zM128 320h64v64h-64v-64zM192 384h64v-64h128v64
h-128v384h-64v-384zM384 384h64v-64h64v64h-64v128h-64v-128zM512 384h64v-64h64v64h-64v128h-64v-128zM640 384h64v128h-64v-128zM832 384v64h-64v-64h64zM832 448h64v64h-64v-64z" />
    <glyph glyph-name="uniFDF9" unicode="&#xfdf9;" arabic-form="isolated" 
d="M448 64v64h-64v-64h-64v-64h-128v-64h128v64h64v64h64zM192 0v64h-64v-64h64zM128 64v192h-64v-192h64zM384 128v64h-128v-64h128zM256 192v64h-64v-64h64zM256 256h64v128h-64v-128zM704 320h192v64h-192v64h-64v-64h-64v-64h64v-64h64v64zM320 384h64v-64h128v64h-128
v384h-64v-384zM512 384h64v128h-64v-128zM896 384h64v128h-64v-128zM704 448h64v64h-64v-64zM768 512h128v64h-128v-64z" />
    <glyph glyph-name="uniFDFA" unicode="&#xfdfa;" arabic-form="isolated" 
d="M768 -64v64h-64v-64h-64v-64h64v64h64zM640 64v64h-64v-64h64zM768 64v64h-64v-64h64zM1024 192v64h-64v64h-64v-64h-64v-64h64v-64h-64v-64h64v-64h64v-64h-128v-64h128v64h64v192h-64v-64h-64v64h64v64h64zM1024 320v64h-64v-64h64zM704 448v64h-64v-64h-576v-64h64
v-64h-64v-64h-64v-64h64v-64h64v64h-64v64h64v-64h192v-128h-192v-64h-64v-64h-64v-64h64v64h64v-64h64v64h-64v64h64v-64h64v64h128v-64h128v-64h64v64h-64v128h-64v-64h-64v192h256v64h-448v128h448v-128h64v-64h64v64h-64v128h-64v64h64zM1024 640v64h-64v-64h-64v64h-64
v64h-64v-128h-64v-64h64v64h64v-128h-64v-256h64v256h64v64h64v64h64zM576 -64h64v64h-64v-64zM64 448v128h-64v-128h64zM640 512v128h-64v-64h-64v-64h128zM192 640v-64h64v64h-64zM192 640v256h-64v-64h-64v-64h-64v-64h64v-64h128zM256 640h64v-64h64v64h-64v256h-64
v-256zM384 640h64v256h-64v-256zM640 640h64v256h-64v-256zM64 704v64h64v-64h-64zM896 704h64v64h-64v-64zM512 896v-192h64v192h-64z" />
    <glyph glyph-name="uniFDFB" unicode="&#xfdfb;" arabic-form="isolated" 
d="M896 -64v64h-64v-64h64zM896 384v64h-64v-64h64zM256 128v-64h128v64h-128zM256 128v256h-64v-64h-64v-64h-64v-64h64v-64h128zM384 128h64v320h-64v-320zM640 128h-128v-64h128v64zM640 128h64v-64h320v128h-64v-64h-256v320h-64v-320zM128 192v64h64v-64h-64zM960 192
v64h-64v-64h64zM512 448v-256h64v256h-64zM832 256h-64v-64h64v64zM832 256h64v64h-64v-64zM128 576v-64h128v64h-128zM128 576v128h-64v-128h64zM256 576h64v-64h704v128h-64v-64h-640v256h-64v-256zM960 640v64h-64v-64h64zM832 704h-64v-64h64v64zM832 704h64v64h-64v-64
z" />
    <glyph glyph-name="uniFDFC" unicode="&#xfdfc;" arabic-form="isolated" 
d="M576 256v64h-64v-64h64zM704 256v64h-64v-64h64zM896 256h-128v-64h128v64zM896 256h64v192h-64v-192zM192 320v-64h192v64h-192zM192 320v128h-64v-128h64zM384 320h64v512h-64v-512zM576 448v-64h64v64h-64zM576 448v384h-64v-384h64zM640 448h64v128h-64v-128z" />
    <glyph glyph-name="uniFE70" unicode="&#xfe70;" horiz-adv-x="512" arabic-form="isolated" 
d="M384 640v64h-128v-64h-128v-64h128v64h128zM384 768v64h-128v-64h-128v-64h128v64h128z" />
    <glyph glyph-name="uniFE71" unicode="&#xfe71;" horiz-adv-x="512" arabic-form="medial" 
d="M512 192v64h-512v-64h512zM384 640v64h-128v-64h-128v-64h128v64h128zM384 768v64h-128v-64h-128v-64h128v64h128z" />
    <glyph glyph-name="uniFE72" unicode="&#xfe72;" horiz-adv-x="512" arabic-form="isolated" 
d="M128 640h-64v-64h192v64h-64v128h-128v-64h64v-64zM256 640h64v64h-64v-64zM320 704h64v192h-128v-128h64v-64z" />
    <glyph glyph-name="uniFE74" unicode="&#xfe74;" horiz-adv-x="512" arabic-form="isolated" 
d="M384 64v64h-128v-64h-128v-64h128v64h128zM384 192v64h-128v-64h-128v-64h128v64h128z" />
    <glyph glyph-name="uniFE76" unicode="&#xfe76;" horiz-adv-x="512" arabic-form="isolated" 
d="M384 640v64h-128v-64h-128v-64h128v64h128z" />
    <glyph glyph-name="uniFE77" unicode="&#xfe77;" horiz-adv-x="512" arabic-form="medial" 
d="M512 192v64h-512v-64h512zM384 640v64h-128v-64h-128v-64h128v64h128z" />
    <glyph glyph-name="uniFE78" unicode="&#xfe78;" horiz-adv-x="512" arabic-form="isolated" 
d="M448 768v64h-64v64h-128v-192h-64v-64h-64v-64h64v64h64v64h64v64h128z" />
    <glyph glyph-name="uniFE79" unicode="&#xfe79;" horiz-adv-x="512" arabic-form="medial" 
d="M512 192v64h-512v-64h512zM448 768v64h-64v64h-128v-192h-64v-64h-64v-64h64v64h64v64h64v64h128z" />
    <glyph glyph-name="uniFE7A" unicode="&#xfe7a;" horiz-adv-x="512" arabic-form="isolated" 
d="M384 -64v64h-128v-64h-128v-64h128v64h128z" />
    <glyph glyph-name="uniFE7B" unicode="&#xfe7b;" horiz-adv-x="512" arabic-form="medial" 
d="M384 -64v64h-128v-64h-128v-64h128v64h128zM512 192v64h-512v-64h512z" />
    <glyph glyph-name="uniFE7C" unicode="&#xfe7c;" horiz-adv-x="512" arabic-form="isolated" 
d="M64 576v-128h128v64h-64v64h-64zM192 512h128v64h-64v64h-64v-128zM320 576h64v128h-64v-128z" />
    <glyph glyph-name="uniFE7D" unicode="&#xfe7d;" horiz-adv-x="512" arabic-form="medial" 
d="M512 192v64h-512v-64h512zM64 576v-128h128v64h-64v64h-64zM192 512h128v64h-64v64h-64v-128zM320 576h64v128h-64v-128z" />
    <glyph glyph-name="uniFE7E" unicode="&#xfe7e;" horiz-adv-x="512" arabic-form="isolated" 
d="M192 512v-64h128v64h-128zM192 512v128h-64v-128h64zM320 512h64v128h-64v-128zM192 640h128v64h-128v-64z" />
    <glyph glyph-name="uniFE7F" unicode="&#xfe7f;" horiz-adv-x="512" arabic-form="medial" 
d="M512 192v64h-512v-64h512zM192 512v-64h128v64h-128zM192 512v128h-64v-128h64zM320 512h64v128h-64v-128zM192 640h128v64h-128v-64z" />
    <glyph glyph-name="uniFE80" unicode="&#x621;" horiz-adv-x="512" arabic-form="isolated" 
d="M384 256v64h-192v64h-64v-128h64v-64h-64v-64h64v64h64v64h128zM384 384v64h-192v-64h192z" />
    <glyph glyph-name="uniFE81" unicode="&#x622;" horiz-adv-x="512" arabic-form="isolated" 
d="M512 768v64h-64v-64h-320v-64h-64v-64h64v64h320v64h64zM256 640v-448h64v448h-64z" />
    <glyph glyph-name="uniFE82" unicode="&#x622;" horiz-adv-x="512" arabic-form="final" 
d="M512 192v64h-320v-64h320zM320 768v64h-64v-64h-192v-64h-64v-64h64v64h192v64h64zM192 256v384h-64v-384h64z" />
    <glyph glyph-name="uniFE83" unicode="&#x623;" horiz-adv-x="512" arabic-form="isolated" 
d="M320 704v64h-128v-64h-64v-64h64v64h128zM320 832v64h-128v-64h-64v-64h64v64h128zM256 640v-448h64v448h-64z" />
    <glyph glyph-name="uniFE84" unicode="&#x623;" horiz-adv-x="512" arabic-form="final" 
d="M512 192v64h-320v-64h320zM256 704v64h-128v-64h-64v-64h64v-384h64v384h-64v64h128zM256 832v64h-128v-64h-64v-64h64v64h128z" />
    <glyph glyph-name="uniFE85" unicode="&#x624;" horiz-adv-x="512" arabic-form="isolated" 
d="M384 576v64h-128v-64h-64v-64h64v64h128zM384 704v64h-128v-64h-64v-64h64v64h128zM128 0v-64h128v64h-128zM128 0v64h-64v-64h64zM256 0h64v64h-64v-64zM320 64h64v64h-64v-64zM384 128h64v256h-64v-128h-128v128h-64v-192h192v-64zM256 384h128v64h-128v-64z" />
    <glyph glyph-name="uniFE86" unicode="&#x624;" horiz-adv-x="512" arabic-form="final" 
d="M512 192v64h-64v128h-64v-128h-128v128h-64v-192h192v-64h-64v-64h-64v-64h-128v-64h128v64h64v64h64v64h64v64h64zM384 576v64h-128v-64h-64v-64h64v64h128zM384 704v64h-128v-64h-64v-64h64v64h128zM128 0v64h-64v-64h64zM256 384h128v64h-128v-64z" />
    <glyph glyph-name="uniFE87" unicode="&#x625;" horiz-adv-x="512" arabic-form="isolated" 
d="M384 -64v64h-128v-64h-64v-64h64v64h128zM384 64v64h-128v-64h-64v-64h64v64h128zM256 640v-448h64v448h-64z" />
    <glyph glyph-name="uniFE88" unicode="&#x625;" horiz-adv-x="512" arabic-form="final" 
d="M256 -64v64h-128v-64h-64v-64h64v64h128zM256 64v64h-128v-64h-64v-64h64v64h128zM512 192v64h-320v-64h320zM192 256v384h-64v-384h64z" />
    <glyph glyph-name="uniFE89" unicode="&#x626;" horiz-adv-x="512" arabic-form="isolated" 
d="M448 256v64h-128v-64h-64v-128h64v-64h64v-64h-256v-64h256v64h64v128h-128v128h128zM256 448v64h-128v-64h-64v-64h64v64h128zM256 576v64h-128v-64h-64v-64h64v64h128zM128 0v320h-64v-320h64z" />
    <glyph glyph-name="uniFE8A" unicode="&#x626;" horiz-adv-x="512" arabic-form="final" 
d="M512 192v64h-128v-192h-256v-64h256v64h64v128h64zM256 448v64h-128v-64h-64v-64h64v64h128zM256 576v64h-128v-64h-64v-64h64v64h128zM128 64v256h-64v-256h64z" />
    <glyph glyph-name="uniFE8B" unicode="&#x626;" horiz-adv-x="512" arabic-form="initial" 
d="M384 512v64h-128v-64h-64v-64h64v64h128zM384 640v64h-128v-64h-64v-64h64v64h128zM320 256h-320v-64h320v64zM320 256h64v128h-64v-128z" />
    <glyph glyph-name="uniFE8C" unicode="&#x626;" horiz-adv-x="512" arabic-form="medial" 
d="M512 192v64h-128v-64h128zM384 512v64h-128v-64h-64v-64h64v64h128zM384 640v64h-128v-64h-64v-64h64v64h128zM320 256h-320v-64h320v64zM320 256h64v128h-64v-128z" />
    <glyph glyph-name="uniFE8D" unicode="&#x627;" horiz-adv-x="512" arabic-form="isolated" 
d="M256 704v-512h64v512h-64z" />
    <glyph glyph-name="uniFE8E" unicode="&#x627;" horiz-adv-x="512" arabic-form="final" 
d="M512 192v64h-320v-64h320zM192 256v448h-64v-448h64z" />
    <glyph glyph-name="uniFE8F" unicode="&#x628;" horiz-adv-x="512" arabic-form="isolated" 
d="M320 0v64h-64v-64h64zM192 320v64h-64v-64h-64v-64h64v-64h256v64h-256v64h64zM384 256h64v128h-64v-128zM384 384v64h-64v-64h64z" />
    <glyph glyph-name="uniFE90" unicode="&#x628;" horiz-adv-x="512" arabic-form="final" 
d="M320 0v64h-64v-64h64zM512 192v64h-64v128h-64v-128h-256v-64h384zM192 320v64h-64v-64h-64v-64h64v64h64zM384 384v64h-64v-64h64z" />
    <glyph glyph-name="uniFE91" unicode="&#x628;" horiz-adv-x="512" arabic-form="initial" 
d="M256 0v64h-64v-64h64zM320 256h-320v-64h384v192h-64v-128zM320 384v64h-64v-64h64z" />
    </font>
</defs>
</svg>
